Поиск

1977 (2002) Pat Metheny - Watercolors {ECM 9028}

1977 (2002) Pat Metheny - Watercolors {ECM 9028}
Страна-производитель диска (релиза):
Germany
Дата издания диска:
1977
Дата переиздания диска:
2002
Номер по каталогу:
9028
Носитель:
CD
Битрейт аудио:
lossless
Аудиокодек:
FLAC (*.flac)
Тип рипа:
image+.cue
Время звучания:
00.41:48
Наличие сканов:
  • да
Релизёр (источник):
Luchano
Треклист:

1. Watercolors 6:30
2. Icefire 6:08
3. Oasis 4:05
4. Lakes 4:46
5. River Quay 4:57
6. Suite: I. Florida Greeting Song 2:33
7. Suite: II. Legend Of The Fountain 2:32
8. Sea Song 10:17

Состав:
  • Manfred Eicher Producer
  • Danny Gottlieb Drums, Drums (Snare)
  • Jan Erik Kongshaug Engineer
  • Lyle Mays Piano
  • Pat Metheny 12-String Bass Guitar, Composer, Guitar, Guitar (12 String), Harp Guitar
  • Eberhard Weber Bass

Записано в Talent Studios, Oslo, Norway

Лог создания рипа
Exact Audio Copy V0.99 prebeta 3 from 28. July 2007

EAC extraction logfile from 3. December 2007, 12:42

Pat Metheny / Watercolors

Used drive : HL-DT-STDVDRRW GSA-H30L Adapter: 1 ID: 1

Read mode : Secure
Utilize accurate stream : Yes
Defeat audio cache : Yes
Make use of C2 pointers : No

Read offset correction : 102
Overread into Lead-In and Lead-Out : Yes
Fill up missing offset samples with silence : Yes
Delete leading and trailing silent blocks : No
Null samples used in CRC calculations : No
Used interface : Installed external ASPI interface

Used output format : User Defined Encoder
Selected bitrate : 1024 kBit/s
Quality : High
Add ID3 tag : No
Command line compressor : C:\Program Files\Exact Audio Copy\FLAC\FLAC.EXE
Additional command line options : -8 -V -T "ARTIST=%a" -T "TITLE=%t" -T "ALBUM=%g" -T "DATE=%y" -T "TRACKNUMBER=%n" -T "GENRE=%m" -T "COMMENT=%e" %s -o %d

TOC of the extracted CD

Track | Start | Length | Start sector | End sector
---------------------------------------------------------
1 | 0:00.33 | 6:30.20 | 33 | 29302
2 | 6:30.53 | 6:08.45 | 29303 | 56947
3 | 12:39.23 | 4:05.65 | 56948 | 75387
4 | 16:45.13 | 4:46.57 | 75388 | 96894
5 | 21:31.70 | 4:57.55 | 96895 | 119224
6 | 26:29.50 | 2:33.00 | 119225 | 130699
7 | 29:02.50 | 2:32.00 | 130700 | 142099
8 | 31:34.50 | 10:17.45 | 142100 | 188419

Range status and errors

Selected range

Filename C:\EAC\Pat Metheny - Watercolors\Pat Metheny - Watercolors.wav

Peak level 90.2 %
Range quality 99.9 %
Test CRC A7F47FFF
Copy CRC A7F47FFF
Copy OK

No errors occurred

AccurateRip summary

Track 1 accurately ripped (confidence 8) [1D5FB881]
Track 2 accurately ripped (confidence 10) [77AF9684]
Track 3 accurately ripped (confidence 10) [7BF84712]
Track 4 accurately ripped (confidence 10) [4B2B5B61]
Track 5 accurately ripped (confidence 10) [1E77FE27]
Track 6 accurately ripped (confidence 10) [D14432F9]
Track 7 accurately ripped (confidence 10) [76A22794]
Track 8 accurately ripped (confidence 10) [2CC87EBE]

All tracks accurately ripped

End of status report
Приватный:
Нет (DHT включён)
Размер:
175.95 Мб (184,500,127 байт) » файлов: 5
Участники:
0 раздают, 0 качают (0 участников всего)
Внешние участники:
5 раздают, 2 качают (7 участников всего) [ Обновить ]
03:31
104
RSS
Нет комментариев. Ваш будет первым!