Поиск

1974 (1990) McCoy Tyner - Enlightenment

1974 (1990) McCoy Tyner - Enlightenment
Страна-производитель диска (релиза):
USA
Дата записи диска:
7 июля 1973
Дата издания диска:
март 1974
Дата переиздания диска:
26 июня 1990
Издатель (лейбл):
Номер по каталогу:
MCD-55001-2
Носитель:
CD
Битрейт аудио:
lossless
Аудиокодек:
FLAC (*.flac)
Тип рипа:
tracks+.cue
Время звучания:
01:09:47
Наличие сканов:
  • да
Релизёр (источник):
AlexMachen
Треклист:

01. Presenting the McCoy Tyner Quartet (1:20)
02. Enlightenment Suite, Part 1 (Genesis) (10:03)
03. Enlightenment Suite, Part 2 (The Offering) (4:00)
04. Enlightenment Suite, Part 3 (Inner Glimpse) (10:05)
05. Presence (10:35)
06. Nebula (9:40)
07. Walk Spirit, Talk Spirit (24:05)

Состав:
  • Joony Booth Bass
  • Orrin Keepnews Producer
  • Azar Lawrence Sax (Soprano), Sax (Tenor), Saxophone
  • Alphonse Mouzon Drums
  • Chris Penycate Engineer
  • McCoy Tyner Composer, Percussion, Piano, Remixing, Synthesizer
Лог создания рипа
<spoiler title="Лог создания рипа"><pre>
EAC extraction logfile from 15. April 2006, 14:01 for CD
McCoy Tyner / Enlightenment
Used drive : SONY CD-RW CRX175A Adapter: 1 ID: 0
Read mode : Secure with NO C2, accurate stream, disable cache
Read offset correction : 12
Overread into Lead-In and Lead-Out : No
Used output format : C:\Program Files\FLAC\flac.exe (User Defined Encoder)
160 kBit/s
Additional command line options : -5 -V -T "ARTIST=%a" -T "TITLE=%t" -T "ALBUM=%g" -T "DATE=%y" -T "TRACKNUMBER=%n" -T "GENRE=%m" -T "COMMENT=EAC Flac 1.1.2 -5" %s
Other options :
Fill up missing offset samples with silence : Yes
Delete leading and trailing silent blocks : No
Native Win32 interface for Win NT & 2000
Track 1
Filename C:\DAE\01 - Presenting the McCoy Tyner Quartet.wav
Pre-gap length 0:00:02.00
Peak level 52.6 %
Track quality 100.0 %
Test CRC 478804C1
Copy CRC 478804C1
Copy OK
Track 2
Filename C:\DAE\02 - Enlightenment Suite, Part 1 (Genesis).wav
Pre-gap length 0:00:00.66
Peak level 86.0 %
Track quality 100.0 %
Test CRC 1AD33953
Copy CRC 1AD33953
Copy OK
Track 3
Filename C:\DAE\03 - Enlightenment Suite, Part 2 (The Offering).wav
Pre-gap length 0:00:00.57
Peak level 75.0 %
Track quality 100.0 %
Test CRC A492A9E0
Copy CRC A492A9E0
Copy OK
Track 4
Filename C:\DAE\04 - Enlightenment Suite, Part 3 (Inner Glimpse).wav
Pre-gap length 0:00:00.57
Peak level 86.7 %
Track quality 100.0 %
Test CRC 871614D0
Copy CRC 871614D0
Copy OK
Track 5
Filename C:\DAE\05 - Presence.wav
Pre-gap length 0:00:03.62
Peak level 89.3 %
Track quality 100.0 %
Test CRC E14D6C23
Copy CRC E14D6C23
Copy OK
Track 6
Filename C:\DAE\06 - Nebula.wav
Pre-gap length 0:00:02.60
Peak level 81.0 %
Track quality 100.0 %
Test CRC 9BCCA99A
Copy CRC 9BCCA99A
Copy OK
Track 7
Filename C:\DAE\07 - Walk Spirit, Talk Spirit.wav
Pre-gap length 0:00:00.33
Peak level 80.8 %
Track quality 100.0 %
Test CRC 4D19F8A1
Copy CRC 4D19F8A1
Copy OK
No errors occured
End of status report
</pre></spoiler>
Приватный:
Нет (DHT включён)
Размер:
436.56 Мб (457,768,182 байт) » файлов: 14
Участники:
0 раздают, 0 качают (0 участников всего)
Внешние участники:
5 раздают, 1 качают (6 участников всего) [ Обновить ]
15:59
63
RSS
Нет комментариев. Ваш будет первым!