Поиск

1968 (2003) Dorothy Ashby - Afro-Harping {Cadet / Verve LPS-809}

1968 (2003) Dorothy Ashby - Afro-Harping {Cadet / Verve LPS-809}
Стили:
Дата записи диска:
февраль 1968
Дата издания диска:
апрель 1968
Дата переиздания диска:
2006
Издатель (лейбл):
Номер по каталогу:
LPS-809
Носитель:
CD
Битрейт аудио:
lossless
Аудиокодек:
APE (*.ape)
Тип рипа:
image+.cue
Время звучания:
36:00
Наличие сканов:
  • web

Треклист:

01. Soul Vibrations 3:22
02. Games 3:57
03. Action Line 3:43
04. Lonely Girl 3:15
05. Life Has Its Trials 4:31
06. Afro-Harping 3:01
07. Little Sunflower 3:47
08. Theme from Valley of the Doll 3:35
09. Come Live With Me 2:39
10. The Look of Love 4:06

"Lonely Girl" взята из саундтрека к кинофильму студии Paramount "Harlow".
"Theme from Valley Of The Dolls" взята из саундтрека к фильму киностудии 20th Century Fox.

Состав:
  • Dorothy Ashby    Harp
  • Paul Upchurch   Guitar
  • Freddie Hubbard   Trumpet
  • Doug Brand    Engineer
  • Richard Evans    Arranger, Composer
  • Bryan Koniarz    Producer
  • Del Shields    Liner Notes

Recorded at Ter Mar Studios, Chicago, February 1968. 

Лог создания рипа
Exact Audio Copy V0.99 prebeta 4 from 23. January 2008
Отчёт EAC об извлечении, выполненном 26. февраля 2009, 0:01
Dorothy Ashby / Afro-Harping
Дисковод: Optiarc DVD RW AD-7203S Adapter: 1 ID: 1
Режим чтения : Достоверность
Использование точного потока : Да
Отключение кэша аудио : Да
Использование указателей C2 : Нет
Коррекция смещения при чтении : 48
Способность читать области Lead-in и Lead-out : Нет
Заполнение пропущенных сэмплов тишиной : Да
Удаление блоков с тишиной в начале и конце : Нет
При вычислениях CRC использовались нулевые сэмплы : Да
Интерфейс : Встроенный Win32-интерфейс для Win NT/2000
Выходной формат : Внутренние WAV-операции
Формат сэмплов : 44.100 Гц; 16 бит; стерео
TOC извлечённого CD
Трек | Старт | Длительность | Начальный сектор | Конечный сектор
---------------------------------------------------------------------
1 | 0:00.00 | 3:22.11 | 0 | 15160
2 | 3:22.11 | 3:57.26 | 15161 | 32961
3 | 7:19.37 | 3:43.12 | 32962 | 49698
4 | 11:02.49 | 3:15.13 | 49699 | 64336
5 | 14:17.62 | 4:31.24 | 64337 | 84685
6 | 18:49.11 | 3:01.27 | 84686 | 98287
7 | 21:50.38 | 3:47.35 | 98288 | 115347
8 | 25:37.73 | 3:35.35 | 115348 | 131507
9 | 29:13.33 | 2:39.58 | 131508 | 143490
10 | 31:53.16 | 4:06.53 | 143491 | 161993
Характеристики диапазона извлечения и сообщения об ошибках
Выбранный диапазон
Имя файла D:\EAC-FOLDER\dorothy ashby\Dorothy Ashby - Afro-Harping\Dorothy Ashby - Afro-Harping.wav
Пиковый уровень 100.0 %
Качество диапазона 100.0 %
CRC копии 0503D358
Копирование... OK
Ошибок не произошло
AccurateRip: сводка
Трек 1 нет в базе данных
Трек 2 нет в базе данных
Трек 3 нет в базе данных
Трек 4 нет в базе данных
Трек 5 нет в базе данных
Трек 6 нет в базе данных
Трек 7 нет в базе данных
Трек 8 нет в базе данных
Трек 9 нет в базе данных
Трек 10 нет в базе данных
Ни одного трека нет в базе AccurateRip
Конец отчёта
Приватный:
Да (DHT отключён)
Размер:
214.23 Мб (224,638,322 байт) » файлов: 6
Участники:
0 раздают, 0 качают (0 участников всего)
Внешние участники:
3 раздают, 1 качают (4 участников всего) [ Обновить ]
22:34
134
RSS
Нет комментариев. Ваш будет первым!