Поиск

1968 (2003) Dorothy Ashby - Afro-Harping {Cadet / Verve LPS-809}

1968 (2003) Dorothy Ashby - Afro-Harping {Cadet / Verve LPS-809}
Стили:
Дата записи диска:
февраль 1968
Дата издания диска:
апрель 1968
Дата переиздания диска:
2006
Издатель (лейбл):
Номер по каталогу:
LPS-809
Носитель:
CD
Битрейт аудио:
lossless
Аудиокодек:
APE (*.ape)
Тип рипа:
image+.cue
Время звучания:
36:00
Наличие сканов:
  • web

Треклист:

01. Soul Vibrations 3:22
02. Games 3:57
03. Action Line 3:43
04. Lonely Girl 3:15
05. Life Has Its Trials 4:31
06. Afro-Harping 3:01
07. Little Sunflower 3:47
08. Theme from Valley of the Doll 3:35
09. Come Live With Me 2:39
10. The Look of Love 4:06

"Lonely Girl" взята из саундтрека к кинофильму студии Paramount "Harlow".
"Theme from Valley Of The Dolls" взята из саундтрека к фильму киностудии 20th Century Fox.

Состав:
  • Dorothy Ashby    Harp
  • Paul Upchurch   Guitar
  • Freddie Hubbard   Trumpet
  • Doug Brand    Engineer
  • Richard Evans    Arranger, Composer
  • Bryan Koniarz    Producer
  • Del Shields    Liner Notes

Recorded at Ter Mar Studios, Chicago, February 1968. 

Exact Audio Copy V0.99 prebeta 4 from 23. January 2008Отчёт EAC об извлечении, выполненном 26. февраля 2009, 0:01Dorothy Ashby / Afro-HarpingДисковод: Optiarc DVD RW AD-7203S Adapter: 1 ID: 1Режим чтения: ДостоверностьИспользование точного потока: ДаОтключение кэша аудио: ДаИспользование указателей C2: НетКоррекция смещения при чтении: 48Способность читать области Lead-in и Lead-out: НетЗаполнение пропущенных сэмплов тишиной: ДаУдаление блоков с тишиной в начале и конце: НетПри вычислениях CRC использовались нулевые сэмплы: ДаИнтерфейс: Встроенный Win32-интерфейс для Win NT/2000Выходной формат: Внутренние WAV-операцииФормат сэмплов: 44.100 Гц; 16 бит; стереоTOC извлечённого CDТрек | Старт | Длительность | Начальный сектор | Конечный сектор---------------------------------------------------------------------1 | 0:00.00 | 3:22.11 | 0 | 151602 | 3:22.11 | 3:57.26 | 15161 | 329613 | 7:19.37 | 3:43.12 | 32962 | 496984 | 11:02.49 | 3:15.13 | 49699 | 643365 | 14:17.62 | 4:31.24 | 64337 | 846856 | 18:49.11 | 3:01.27 | 84686 | 982877 | 21:50.38 | 3:47.35 | 98288 | 1153478 | 25:37.73 | 3:35.35 | 115348 | 1315079 | 29:13.33 | 2:39.58 | 131508 | 14349010 | 31:53.16 | 4:06.53 | 143491 | 161993Характеристики диапазона извлечения и сообщения об ошибкахВыбранный диапазонИмя файла D:\EAC-FOLDER\dorothy ashby\Dorothy Ashby — Afro-Harping\Dorothy Ashby — Afro-Harping.wavПиковый уровень 100.0 %Качество диапазона 100.0 %CRC копии 0503D358Копирование… OKОшибок не произошлоAccurateRip: сводкаТрек 1 нет в базе данныхТрек 2 нет в базе данныхТрек 3 нет в базе данныхТрек 4 нет в базе данныхТрек 5 нет в базе данныхТрек 6 нет в базе данныхТрек 7 нет в базе данныхТрек 8 нет в базе данныхТрек 9 нет в базе данныхТрек 10 нет в базе данныхНи одного трека нет в базе AccurateRipКонец отчёта
22:34
85
RSS
Нет комментариев. Ваш будет первым!