Поиск

1966 (1991) Eric Dolphy - Here and There

1966 (1991) Eric Dolphy - Here and There
Страна-производитель диска (релиза):
USA
Дата записи диска:
1 апреля 1960, 16 июля 1961, 6 сентября 1961
Дата издания диска:
май 1966
Издатель (лейбл):
Номер по каталогу:
OJCD-673-2 (PRLP 7382)
Носитель:
CD
Битрейт аудио:
lossless
Аудиокодек:
APE (*.ape)
Тип рипа:
image+.cue
Время звучания:
48:23
Наличие сканов:
  • да
Релизёр (источник):
mironov_ad
Треклист:
  1. "Status Seeking" (Waldron) 13:08
  2. "God Bless the Child" (Billie Holiday/Arthur Herzog Jr.) 5:16
  3. "April Fool" (Dolphy) 4:10
  4. "G.W." [Take 1] (Dolphy) 12:11
  5. "Don't Blame Me" (Jimmy McHugh/Dorothy Fields) 13:07
Состав:
  • Eric Dolphy — alto sax (tracks 1, 4), bass clarinet (2), flute (3, 5)
  • Mal Waldron — piano (1)
  • Booker Little — trumpet (1)
  • Eddie Blackwell — drums (1)
  • Richard Davis — double bass (1)
  • Roy Haynes — drums (3, 4)
  • Freddie Hubbard — trumpet (4)
  • George Tucker — double bass (3, 4)
  • Jaki Byard — piano (3, 4)
  • Bent Axen — piano (5)
  • Erik Moseholm — double bass (5)
  • Jorn Elniff — drums (5)

Альбом содержит редкие записи с трех разных сессий: 1 и 2 треки записаны live at the Five Spot, NY, 16 июля 1961 года; 3 и 4 треки — студийная запись 1 апреля 1960 года; последний трек записан live в Копенгагене 6 сентября 1961 года. Режиссер всех записей — Rudi van Gelder. Оцифрован альбом на Fantasy Studios звукорежиссёром Phil De Lancie. 4 трек бонусный.
Записи проходили в:
Berlingske Has, Copenhagen, Denmark
Englewood Cliffs, NJ
Five Spot, New York, NY
Studenterforeningen, Copenhagen, Denmark
Лог создания рипа
<spoiler title="Лог создания рипа"><pre>Exact Audio Copy V0.99 prebeta 1 from 25. May 2007
EAC extraction logfile from 14. August 2007, 1:35
Eric Dolphy / Here and There
Used drive : PIONEER DVD-RW DVR-108 Adapter: 0 ID: 2
Read mode : Secure
Utilize accurate stream : Yes
Defeat audio cache : Yes
Make use of C2 pointers : No
Read offset correction : 48
Overread into Lead-In and Lead-Out : Yes
Fill up missing offset samples with silence : Yes
Delete leading and trailing silent blocks : No
Used interface : Installed external ASPI interface
Used output format : Monkey's Audio Lossless Encoder
Selected bitrate : Normal Lossless Compression
Quality : High
Add ID3 tag : Yes
Command line compressor : C:\Program Files\Monkey's Audio\MAC.exe
TOC of the extracted CD
Track | Start | Length | Start sector | End sector
---------------------------------------------------------
1 | 0:00.00 | 13:18.12 | 0 | 59861
2 | 13:18.12 | 5:34.38 | 59862 | 84949
3 | 18:52.50 | 4:10.35 | 84950 | 103734
4 | 23:03.10 | 12:11.20 | 103735 | 158579
5 | 35:14.30 | 13:07.42 | 158580 | 217646
Range status and errors
Selected range
Filename C:\Documents and Settings\Mius\My Documents\My Music\Eric Dolphy - Here and There\Eric Dolphy - Here and There.wav
Peak level 96.7 %
Range quality 100.0 %
Copy CRC 8E246906
Copy OK
No errors occurred
End of status report</pre></spoiler>
Приватный:
Нет (DHT включён)
Размер:
277.96 Мб (291,463,876 байт) » файлов: 9
Участники:
0 раздают, 0 качают (0 участников всего)
Внешние участники:
3 раздают, 1 качают (4 участников всего) [ Обновить ]
Скорость:
Торрент не зарегистрирован на трекере
22:22
108
RSS
Нет комментариев. Ваш будет первым!