Поиск

1966-1969 (2002) Oscar Peterson Trio - Paris Jazz Concert Set 3 (2CD) {Delta 17435, 17436}

1966-1969 (2002) Oscar Peterson Trio - Paris Jazz Concert Set 3 (2CD) {Delta 17435, 17436}
Страна-производитель диска (релиза):
France
Дата записи диска:
29 марта 1966 - 18 ноября 1969
Дата издания диска:
2002
Номер по каталогу:
17435, 17436
Носитель:
CD
Битрейт аудио:
lossless
Аудиокодек:
FLAC (*.flac)
Тип рипа:
tracks
Время звучания:
65:22 + 61:39
Наличие сканов:
  • да
Релизёр (источник):
JanV
Треклист:

CD 1
01. Hogtown blues 7:38
02. Waltz for Debby 8:41
03. Between the devil 8:23
04. My one and only love 7:58
05. In a mellotone 5:35
06. The lamp is low 7:16
07. On a clear day 4:40
08. Triste 6:19
09. Down here on the ground 8:46

CD 2
01. Tristeza 4:13
02. By the time I get to phoenix / I concentrate on you 9:55
03. Let's fall in love 3:36
04. Someday my prince will come 4:26
05. Lined with a groove 4:48
06. Billie's bounce 5:04
07. Fly me to the moon 4:19
08. Squeaky's blues 5:04
09. The days of wine & roses 7:22
10. Waltzing is hip 7:42
11. Blues etude 4:56

Состав:
CD 01

rec.: Marth 29th, 1966 — Salle Plyeyl (##1-5)
November 18th, 1969 — Salle Plyeyl (##6-9)

CD 02
  • Oscar Peterson, piano
  • Sam Jones, bass
  • Bobby Durham, drums
  • Butch Watanabe, trombone (#6-8)

rec.: November 18th, 1969 — Salle Plyeyl
Лог создания рипа
<spoiler title="Логи создания рипа"><spoiler title="CD 01"><pre>Отчёт EAC об извлечении, выполненном 27. декабря 2007, 21:58 для диска:
Oscar Peterson / live Salle Pleyel CD 1
Дисковод: TSSTcorpCDDVDW SH-S203D Adapter: 2 ID: 1
Режим чтения: Достоверный (C2: нет, Точный поток: да, Отключение кэша: да)
Коррекция смещения при чтении: 0
Способность читать области Lead-in и Lead-out : Нет
Выходной формат: Внутренние WAV-операции
44.100 Гц; 16 бит; стерео
Другие параметры:
Заполнение пропущенных сэмплов тишиной : Да
Удаление блоков с тишиной в начале и конце : Нет
Встроенный Win32-интерфейс для Win NT/2000
Трек 1
Имя файла C:\Documents and Settings\EACtemp\(01) Hogtown Blues - Oscar Peterson.wav
Пиковый уровень 100.0 %
Качество трека 99.9 %
CRC теста 24865038
CRC копии 24865038
Копирование... OK
Трек 2
Имя файла C:\Documents and Settings\EACtemp\(02) Waltz For Debby - Oscar Peterson.wav
Пиковый уровень 90.6 %
Качество трека 100.0 %
CRC теста 3ED03141
CRC копии 3ED03141
Копирование... OK
Трек 3
Имя файла C:\Documents and Settings\EACtemp\(03) Between The Devil + The Deep Blue Sea - Oscar Peterson.wav
Пиковый уровень 100.0 %
Качество трека 100.0 %
CRC теста 171DE065
CRC копии 171DE065
Копирование... OK
Трек 4
Имя файла C:\Documents and Settings\EACtemp\(04) My One And Only Love - Oscar Peterson.wav
Пиковый уровень 100.0 %
Качество трека 100.0 %
CRC теста 1FAE9628
CRC копии 1FAE9628
Копирование... OK
Трек 5
Имя файла C:\Documents and Settings\EACtemp\(05) In A Mellotone - Oscar Peterson.wav
Пиковый уровень 94.6 %
Качество трека 100.0 %
CRC теста 936E5F40
CRC копии 936E5F40
Копирование... OK
Трек 6
Имя файла C:\Documents and Settings\EACtemp\(06) The Lamp Is Low - Oscar Peterson.wav
Пиковый уровень 100.0 %
Качество трека 100.0 %
CRC теста D5774EF4
CRC копии D5774EF4
Копирование... OK
Трек 7
Имя файла C:\Documents and Settings\EACtemp\(07) On A Clear Day - Oscar Peterson.wav
Пиковый уровень 100.0 %
Качество трека 100.0 %
CRC теста 0104BEBE
CRC копии 0104BEBE
Копирование... OK
Трек 8
Имя файла C:\Documents and Settings\EACtemp\(08) Triste - Oscar Peterson.wav
Пиковый уровень 100.0 %
Качество трека 100.0 %
CRC теста F85ACEF6
CRC копии F85ACEF6
Копирование... OK
Трек 9
Имя файла C:\Documents and Settings\EACtemp\(09) Down Here On The Ground - Oscar Peterson.wav
Пиковый уровень 100.0 %
Качество трека 100.0 %
CRC теста 0EFA3622
CRC копии 0EFA3622
Копирование... OK
Ошибок не произошло
Конец отчёта</pre></spoiler><spoiler title="CD 02"><pre>Отчёт EAC об извлечении, выполненном 27. декабря 2007, 22:31 для диска:
Oscar Peterson / live at Salle Pleyel CD 2
Дисковод: TSSTcorpCDDVDW SH-S203D Adapter: 2 ID: 1
Режим чтения: Достоверный (C2: нет, Точный поток: да, Отключение кэша: да)
Коррекция смещения при чтении: 0
Способность читать области Lead-in и Lead-out : Нет
Выходной формат: Внутренние WAV-операции
44.100 Гц; 16 бит; стерео
Другие параметры:
Заполнение пропущенных сэмплов тишиной : Да
Удаление блоков с тишиной в начале и конце : Нет
Встроенный Win32-интерфейс для Win NT/2000
Трек 1
Имя файла C:\Documents and Settings\EACtemp\(01) Tristeza - Oscar Peterson.wav
Пиковый уровень 99.9 %
Качество трека 100.0 %
CRC теста 21BB4D8A
CRC копии 21BB4D8A
Копирование... OK
Трек 2
Имя файла C:\Documents and Settings\EACtemp\(02) By The Time I Get To Phoenix - Oscar Peterson.wav
Пиковый уровень 100.0 %
Качество трека 100.0 %
CRC теста 8E4417B4
CRC копии 8E4417B4
Копирование... OK
Трек 3
Имя файла C:\Documents and Settings\EACtemp\(03) Let's Fall In Love - Oscar Peterson.wav
Пиковый уровень 100.0 %
Качество трека 100.0 %
CRC теста C5957778
CRC копии C5957778
Копирование... OK
Трек 4
Имя файла C:\Documents and Settings\EACtemp\(04) Someday My Prince Will Come - Oscar Peterson.wav
Пиковый уровень 100.0 %
Качество трека 100.0 %
CRC теста 3DB78EDB
CRC копии 3DB78EDB
Копирование... OK
Трек 5
Имя файла C:\Documents and Settings\EACtemp\(05) Lined With A Groove - Oscar Peterson.wav
Пиковый уровень 99.3 %
Качество трека 100.0 %
CRC теста 927BFB2F
CRC копии 927BFB2F
Копирование... OK
Трек 6
Имя файла C:\Documents and Settings\EACtemp\(06) Billie's Bounce - Oscar Peterson.wav
Пиковый уровень 100.0 %
Качество трека 100.0 %
CRC теста 492CE854
CRC копии 492CE854
Копирование... OK
Трек 7
Имя файла C:\Documents and Settings\EACtemp\(07) Fly Me To The Moon - Oscar Peterson.wav
Пиковый уровень 100.0 %
Качество трека 100.0 %
CRC теста BA38B3EA
CRC копии BA38B3EA
Копирование... OK
Трек 8
Имя файла C:\Documents and Settings\EACtemp\(08) Squeaky's Blues - Oscar Peterson.wav
Пиковый уровень 99.4 %
Качество трека 100.0 %
CRC теста E2D558CE
CRC копии E2D558CE
Копирование... OK
Трек 9
Имя файла C:\Documents and Settings\EACtemp\(09) The Days Of Wine + Roses - Oscar Peterson.wav
Пиковый уровень 99.6 %
Качество трека 100.0 %
CRC теста F24F4657
CRC копии F24F4657
Копирование... OK
Трек 10
Имя файла C:\Documents and Settings\EACtemp\(10) Waltzing Is Hip - Oscar Peterson.wav
Пиковый уровень 100.0 %
Качество трека 100.0 %
CRC теста 39A8D919
CRC копии 39A8D919
Копирование... OK
Трек 11
Имя файла C:\Documents and Settings\EACtemp\(11) Blues Etude (Concert Closing) - Oscar Peterson.wav
Пиковый уровень 100.0 %
Качество трека 100.0 %
CRC теста 63B00039
CRC копии 63B00039
Копирование... OK
Ошибок не произошло
Конец отчёта</pre></spoiler></spoiler>
Приватный:
Нет (DHT включён)
Размер:
710.36 Мб (744,863,437 байт) » файлов: 31
Участники:
0 раздают, 0 качают (0 участников всего)
Внешние участники:
Нет внешних трекеров [ Обновить ]
04:22
40
RSS
Нет комментариев. Ваш будет первым!