Поиск

1961 (2002) Hank Mobley - Roll Call (RVG Edition) {Blue Note 7243 5 40030 2 8}

1961 (2002) Hank Mobley - Roll Call (RVG Edition) {Blue Note 7243 5 40030 2 8}
Страна-производитель диска (релиза):
EU
Дата записи диска:
13 ноября 1960
Дата издания диска:
июль 1961
Дата переиздания диска:
2002
Издатель (лейбл):
Номер по каталогу:
7243 5 40030 2 8
Носитель:
CD
Битрейт аудио:
lossless
Аудиокодек:
FLAC (*.flac)
Тип рипа:
tracks+.cue
Время звучания:
52:30
Наличие сканов:
  • да
Релизёр (источник):
ordo

Треклист:
01. Roll Call 10:31
02. My Groove Your Move 6:04
03. Take Your Pick 5:24
04. A Baptist Beat 8:52
05. The More I See You 6:45
06. The Breakdown 4:54
07. A Baptist Beat (Alternate Take) 9:42                   
Состав:

Recorded at the Van Gelder Studio, Englewood Cliffs, New Jersey on November 13, 1960. Originally released on Bluenote (4058). Includes liner notes by Robert Levin and Bob Blumenthal. Digitally remastered by Rudy Van Gelder. This is part of Blue Note's RVG series.

Лог создания рипа
<spoiler title="Лог создания рипа">
EAC extraction logfile from 25. August 2009, 0:50 for CD
Hank Mobley / Roll Call
Used drive  : HL-DT-STDVDRAM GH22NS40   Adapter: 2  ID: 0
Read mode   : Secure with NO C2, accurate stream, disable cache
Read offset correction : 667
Overread into Lead-In and Lead-Out : No
Used output format : C:\Program Files (x86)\Exact Audio Copy\Flac\flac.exe   (User Defined Encoder)
                     128 kBit/s
                     Additional command line options : -8 -V -T "ARTIST=%a" -T "TITLE=%t" -T "ALBUM=%g" -T "DATE=%y" -T "TRACKNUMBER=%n" -T "GENRE=%m" -T "COMMENT=EAC FLAC -8" %s
Other options      :
    Fill up missing offset samples with silence : Yes
    Delete leading and trailing silent blocks : No
    Native Win32 interface for Win NT & 2000
Track  1
     Filename H:\Jazz Music\ONLY JAZZ\Hank Mobley\Hank Mobley - Roll Call - 1960 {RVG Edition}\01. Roll Call.wav
     Pre-gap length  0:00:02.00
     Peak level 97.9 %
     Track quality 100.0 %
     Test CRC 9E6C4BE1
     Copy CRC 9E6C4BE1
     Copy OK
Track  2
     Filename H:\Jazz Music\ONLY JAZZ\Hank Mobley\Hank Mobley - Roll Call - 1960 {RVG Edition}\02. My Groove Your Move.wav
     Pre-gap length  0:00:02.64
     Peak level 97.9 %
     Track quality 100.0 %
     Test CRC 508CF430
     Copy CRC 508CF430
     Copy OK
Track  3
     Filename H:\Jazz Music\ONLY JAZZ\Hank Mobley\Hank Mobley - Roll Call - 1960 {RVG Edition}\03. Take Your Pick.wav
     Pre-gap length  0:00:02.77
     Peak level 97.9 %
     Track quality 100.0 %
     Test CRC 8170777B
     Copy CRC 8170777B
     Copy OK
Track  4
     Filename H:\Jazz Music\ONLY JAZZ\Hank Mobley\Hank Mobley - Roll Call - 1960 {RVG Edition}\04. A Baptist Beat.wav
     Pre-gap length  0:00:02.96
     Peak level 97.9 %
     Track quality 100.0 %
     Test CRC 59973117
     Copy CRC 59973117
     Copy OK
Track  5
     Filename H:\Jazz Music\ONLY JAZZ\Hank Mobley\Hank Mobley - Roll Call - 1960 {RVG Edition}\05. The More I See You.wav
     Pre-gap length  0:00:00.98
     Peak level 97.9 %
     Track quality 100.0 %
     Test CRC 53C1A5D1
     Copy CRC 53C1A5D1
     Copy OK
Track  6
     Filename H:\Jazz Music\ONLY JAZZ\Hank Mobley\Hank Mobley - Roll Call - 1960 {RVG Edition}\06. The Breakdown.wav
     Pre-gap length  0:00:01.70
     Peak level 97.9 %
     Track quality 100.0 %
     Test CRC 7CFD73C3
     Copy CRC 7CFD73C3
     Copy OK
Track  7
     Filename H:\Jazz Music\ONLY JAZZ\Hank Mobley\Hank Mobley - Roll Call - 1960 {RVG Edition}\07. A Baptist Beat (alternate take).wav
     Pre-gap length  0:00:03.42
     Peak level 97.9 %
     Track quality 100.0 %
     Test CRC 78B86D01
     Copy CRC 78B86D01
     Copy OK
No errors occured
End of status report
</spoiler>
Содержание индексной карты (.CUE)
<spoiler title="Содержание индексной карты (.CUE)">REM GENRE Jazz
REM DATE 1960
REM DISCID 4A0C4E07
REM COMMENT "ExactAudioCopy v0.95b3"
PERFORMER "Hank Mobley"
TITLE "Roll Call"
FILE "01. Roll Call.wav" WAVE
  TRACK 01 AUDIO
    TITLE "Roll Call"
    PERFORMER "Hank Mobley"
    INDEX 01 00:00:00
  TRACK 02 AUDIO
    TITLE "My Groove Your Move"
    PERFORMER "Hank Mobley"
    INDEX 00 10:31:14
FILE "02. My Groove Your Move.wav" WAVE
    INDEX 01 00:00:00
  TRACK 03 AUDIO
    TITLE "Take Your Pick"
    PERFORMER "Hank Mobley"
    INDEX 00 06:04:47
FILE "03. Take Your Pick.wav" WAVE
    INDEX 01 00:00:00
  TRACK 04 AUDIO
    TITLE "A Baptist Beat"
    PERFORMER "Hank Mobley"
    INDEX 00 05:24:53
FILE "04. A Baptist Beat.wav" WAVE
    INDEX 01 00:00:00
  TRACK 05 AUDIO
    TITLE "The More I See You"
    PERFORMER "Hank Mobley"
    INDEX 00 08:53:42
FILE "05. The More I See You.wav" WAVE
    INDEX 01 00:00:00
  TRACK 06 AUDIO
    TITLE "The Breakdown"
    PERFORMER "Hank Mobley"
    INDEX 00 06:45:62
FILE "06. The Breakdown.wav" WAVE
    INDEX 01 00:00:00
  TRACK 07 AUDIO
    TITLE "A Baptist Beat (alternate take)"
    PERFORMER "Hank Mobley"
    INDEX 00 04:54:19
FILE "07. A Baptist Beat (alternate take).wav" WAVE
    INDEX 01 00:00:00</spoiler>
Приватный:
Нет (DHT включён)
Размер:
367.05 Мб (384,884,455 байт) » файлов: 18
Участники:
0 раздают, 0 качают (0 участников всего)
Внешние участники:
3 раздают, 1 качают (4 участников всего) [ Обновить ]
02:06
107
RSS
Нет комментариев. Ваш будет первым!