Поиск

1961, 1962 (1992) Gene Ammons - Soul Summit {Prestige PCD-24118-2}

1961, 1962 (1992) Gene Ammons - Soul Summit {Prestige PCD-24118-2}
Страна-производитель диска (релиза):
USA
Дата записи диска:
13 июня 1961 - 13 апреля 1962
Дата издания диска:
1992
Издатель (лейбл):
Номер по каталогу:
PCD-24118-2
Носитель:
CD
Битрейт аудио:
lossless
Аудиокодек:
APE (*.ape)
Тип рипа:
image+.cue
Время звучания:
01:14:12
Наличие сканов:
  • да
Релизёр (источник):
anahoret773

Треклист:

01. Tubby 9:10
02. Dumplin' 5:00
03. When You Wish upon a Star 4:30
04. Shuffle Twist 6:00
05. Sleeping Susan 5:35
06. Out in the Cold Again 6:40
07. Love, I've Found You 5:05
08. But Not for Me 4:24
09. Too Marvelous for Words 3:50
10. If You Are But a Dream 4:25
11. Scram 7:35
12. Ballad for Baby 6:10
13. Cool Cool Daddy 4:50

# 1-6 изначально были изданы в альбоме Soul Summit, vol.1 (Prestige 7234)
# 7-13 изначально были изданы в альбоме Soul Summit, vol.2 (Prestige 7275)

1-6: 19 февраля 1962;
7-9: 13 июня 1961;
8, 10 и 13: 13 апреля 1962;
11: 1 декабря 1961
12: 23 января 1962

Состав:
  • /artists/amm.html">Amm
  • ons.html">Gene Ammons
— Sax (Tenor) Sonny Stitt — Sax (Baritone), Sax (Tenor) Jack McDuff — Organ Etta Jones — Vocals Clark Terry — Trumpet Hobart Dotson — Trumpet Oliver Nelson — Sax (Alto) George Barrow — Sax (Tenor) Harold Vick — Sax (Tenor) Red Holloway — Sax (Tenor) Bob Ashton — Sax (Baritone) Eddie Diehl — Guitar Richard Wyands — Piano Patti Bown — Piano George Duvivier — Bass Wendell Marshall — Bass Billy Gene English — Drums Joe Dukes — Drums Walter Perkins — Drums Charlie Persip — Drums Ray Barretto — Conga Rudy Van Gelder — Engineer
Лог создания рипа
Exact Audio Copy V0.99 prebeta 4 from 23. January 2008
EAC extraction logfile from 15. September 2009, 20:57
Gene Ammons / Soul Summit
Used drive : HL-DT-STRW/DVD GCC-4242N Adapter: 1 ID: 0
Read mode : Secure
Utilize accurate stream : Yes
Defeat audio cache : Yes
Make use of C2 pointers : No
Read offset correction : 102
Overread into Lead-In and Lead-Out : No
Fill up missing offset samples with silence : Yes
Delete leading and trailing silent blocks : No
Null samples used in CRC calculations : Yes
Used interface : Native Win32 interface for Win NT & 2000
Used output format : Internal WAV Routines
Sample format : 44.100 Hz; 16 Bit; Stereo
TOC of the extracted CD
Track | Start | Length | Start sector | End sector
---------------------------------------------------------
1 | 0:00.00 | 9:14.25 | 0 | 41574
2 | 9:14.25 | 5:01.62 | 41575 | 64211
3 | 14:16.12 | 4:36.53 | 64212 | 84964
4 | 18:52.65 | 6:02.57 | 84965 | 112171
5 | 24:55.47 | 5:42.20 | 112172 | 137841
6 | 30:37.67 | 6:49.38 | 137842 | 168554
7 | 37:27.30 | 5:10.35 | 168555 | 191839
8 | 42:37.65 | 4:28.70 | 191840 | 212009
9 | 47:06.60 | 3:59.07 | 212010 | 229941
10 | 51:05.67 | 4:23.03 | 229942 | 249669
11 | 55:28.70 | 7:41.67 | 249670 | 284311
12 | 63:10.62 | 6:14.00 | 284312 | 312361
13 | 69:24.62 | 4:50.65 | 312362 | 334176
Range status and errors
Selected range
Filename C:\_\EAC_Out\Out\Gene Ammons - Soul Summit\Gene Ammons - Soul Summit.wav
Peak level 88.4 %
Range quality 100.0 %
Copy CRC B5727584
Copy OK
No errors occurred
AccurateRip summary
Track 1 not present in database
Track 2 not present in database
Track 3 not present in database
Track 4 not present in database
Track 5 not present in database
Track 6 not present in database
Track 7 not present in database
Track 8 not present in database
Track 9 not present in database
Track 10 not present in database
Track 11 not present in database
Track 12 not present in database
Track 13 not present in database
None of the tracks are present in the AccurateRip database
End of status report
Приватный:
Нет (DHT включён)
Размер:
439.76 Мб (461,125,454 байт) » файлов: 10
Участники:
0 раздают, 0 качают (0 участников всего)
Внешние участники:
7 раздают, 2 качают (9 участников всего) [ Обновить ]
11:17
118
RSS
Нет комментариев. Ваш будет первым!