Поиск

1961, 1962 (1992) Gene Ammons - Soul Summit {Prestige PCD-24118-2}

1961, 1962 (1992) Gene Ammons - Soul Summit {Prestige PCD-24118-2}
Страна-производитель диска (релиза):
USA
Дата записи диска:
13 июня 1961 - 13 апреля 1962
Дата издания диска:
1992
Издатель (лейбл):
Номер по каталогу:
PCD-24118-2
Носитель:
CD
Битрейт аудио:
lossless
Аудиокодек:
APE (*.ape)
Тип рипа:
image+.cue
Время звучания:
01:14:12
Наличие сканов:
  • да
Релизёр (источник):
anahoret773

Треклист:

01. Tubby 9:10
02. Dumplin' 5:00
03. When You Wish upon a Star 4:30
04. Shuffle Twist 6:00
05. Sleeping Susan 5:35
06. Out in the Cold Again 6:40
07. Love, I've Found You 5:05
08. But Not for Me 4:24
09. Too Marvelous for Words 3:50
10. If You Are But a Dream 4:25
11. Scram 7:35
12. Ballad for Baby 6:10
13. Cool Cool Daddy 4:50

# 1-6 изначально были изданы в альбоме Soul Summit, vol.1 (Prestige 7234)
# 7-13 изначально были изданы в альбоме Soul Summit, vol.2 (Prestige 7275)

1-6: 19 февраля 1962;
7-9: 13 июня 1961;
8, 10 и 13: 13 апреля 1962;
11: 1 декабря 1961
12: 23 января 1962

Состав:
  • /artists//artists//artists//artists//artists//artists/AMM.html">AMM
  • .html">AMM
.html">AMM.html">AMM.html">AMM.html">AMM.html">AMM.html">AMM.html">AMM.html">AMM.html">AMMons.html">Gene /artists//artists//artists//artists//artists//artists/amm.html">AMM.html">AMM.html">AMM.html">AMM.html">AMM.html">AMM.html">AMM.html">AMM.html">AMM.html">AMM.html">AMM.html">AMMons — Sax (Tenor) Sonny Stitt — Sax (Baritone), Sax (Tenor) Jack McDuff — Organ Etta Jones — Vocals Clark Terry — Trumpet Hobart Dotson — Trumpet Oliver Nelson — Sax (Alto) George Barrow — Sax (Tenor) Harold Vick — Sax (Tenor) Red Holloway — Sax (Tenor) Bob Ashton — Sax (Baritone) Eddie Diehl — Guitar Richard Wyands — Piano Patti Bown — Piano George Duvivier — Bass Wendell Marshall — Bass Billy Gene English — Drums Joe Dukes — Drums Walter Perkins — Drums Charlie Persip — Drums Ray Barretto — Conga Rudy Van Gelder — Engineer
Exact Audio Copy V0.99 prebeta 4 from 23. January 2008EAC extraction logfile from 15. September 2009, 20:57Gene Ammons / Soul SummitUsed drive: HL-DT-STRW/DVD GCC-4242N Adapter: 1 ID: 0Read mode: SecureUtilize accurate stream: YesDefeat audio cache: YesMake use of C2 pointers: NoRead offset correction: 102Overread into Lead-In and Lead-Out: NoFill up missing offset samples with silence: YesDelete leading and trailing silent blocks: NoNull samples used in CRC calculations: YesUsed interface: Native Win32 interface for Win NT & 2000Used output format: Internal WAV RoutinesSample format: 44.100 Hz; 16 Bit; StereoTOC of the extracted CDTrack | Start | Length | Start sector | End sector---------------------------------------------------------1 | 0:00.00 | 9:14.25 | 0 | 415742 | 9:14.25 | 5:01.62 | 41575 | 642113 | 14:16.12 | 4:36.53 | 64212 | 849644 | 18:52.65 | 6:02.57 | 84965 | 1121715 | 24:55.47 | 5:42.20 | 112172 | 1378416 | 30:37.67 | 6:49.38 | 137842 | 1685547 | 37:27.30 | 5:10.35 | 168555 | 1918398 | 42:37.65 | 4:28.70 | 191840 | 2120099 | 47:06.60 | 3:59.07 | 212010 | 22994110 | 51:05.67 | 4:23.03 | 229942 | 24966911 | 55:28.70 | 7:41.67 | 249670 | 28431112 | 63:10.62 | 6:14.00 | 284312 | 31236113 | 69:24.62 | 4:50.65 | 312362 | 334176Range status and errorsSelected rangeFilename C:\_\EAC_Out\Out\Gene Ammons — Soul Summit\Gene Ammons — Soul Summit.wavPeak level 88.4 %Range quality 100.0 %Copy CRC B5727584Copy OKNo errors occurredAccurateRip summaryTrack 1 not present in databaseTrack 2 not present in databaseTrack 3 not present in databaseTrack 4 not present in databaseTrack 5 not present in databaseTrack 6 not present in databaseTrack 7 not present in databaseTrack 8 not present in databaseTrack 9 not present in databaseTrack 10 not present in databaseTrack 11 not present in databaseTrack 12 not present in databaseTrack 13 not present in databaseNone of the tracks are present in the AccurateRip databaseEnd of status report
11:17
80
RSS
Нет комментариев. Ваш будет первым!