Поиск

1960, 1961 (2012) The Chris Anderson Trio - My Romance & Inverted Image (2in1) {Fresh Sound FSR-CD 688}

1960, 1961 (2012) The Chris Anderson Trio - My Romance & Inverted Image (2in1) {Fresh Sound FSR-CD 688}
Стили:
Страна-производитель диска (релиза):
Spain
Дата записи диска:
12 октября 1960, 28 июня - 8 ноября 1961
Дата издания диска:
2012
Издатель (лейбл):
Номер по каталогу:
FSR-CD 688
Носитель:
CD
Битрейт аудио:
lossless
Аудиокодек:
FLAC (*.flac)
Тип рипа:
tracks+.cue
Время звучания:
78:42
Наличие сканов:
  • да
Релизёр (источник):
headman
Треклист:

My Romance (1960)
01. Wrap Your Troubles in Dreams (Barris) - 3:32
02. So in Love (Porter) - 4:25
03. You Stepped Out of a Dream (Brown) - 6:24
04. Soon (Gershwin) - 2:48
05. Monica (Lee) - 2:41
06. A Fellow Needs a Girl (Rodgers) - 3:10
07. I Could Write a Book (Rodgers) - 3:53
08. My Romance (Rodgers) - 5:21
09. Love Letters (Young) - 7:04
Inverted Image (1961)
10. Inverted Images (Anderson) - 6:02
11. Lullaby of the Leaves (Young-Petkere) - 4:56
12. My Funny Valentine (Rodgers-Hart) - 4:27
13. See You Saturday (Anderson-Lee) - 4:33
14. Dancing in the Dark (Dietz-Schwartz) - 4:31
15. Only One (Lee) - 4:02
16. I Hear a Rhapsody (Fragos-Baker) - 5:05
17. You'd Be So Nice to Come Home To (Porter) - 5:48

Состав:

Recorded at Universal Recording Studios, Chicago on October 12, 1960 (#1-9),
and at Bell Sound Studios on June 28 (#13,16,17),
and Plaza Sound Studios, New York on November 8 (#10-12,14,15), 1961.

Лог создания рипа
Exact Audio Copy V1.0 beta 3 from 29. August 2011

EAC extraction logfile from 24. April 2012, 12:13

Chris Anderson Trio / My Romance & Inverted Image

Used drive  : ATAPI   DVD A  DH16ABSH   Adapter: 2  ID: 1

Read mode               : Secure
Utilize accurate stream : Yes
Defeat audio cache      : Yes
Make use of C2 pointers : No

Read offset correction                      : 6
Overread into Lead-In and Lead-Out          : No
Fill up missing offset samples with silence : Yes
Delete leading and trailing silent blocks   : No
Null samples used in CRC calculations       : Yes
Used interface                              : Native Win32 interface for Win NT & 2000
Gap handling                                : Appended to previous track

Used output format              : User Defined Encoder
Selected bitrate                : 768 kBit/s
Quality                         : High
Add ID3 tag                     : No
Command line compressor         : C:\Program Files (x86)\Exact Audio Copy\FLAC\FLAC.EXE
Additional command line options : -6 -V -T "ARTIST=%artist%" -T "TITLE=%title%" -T "ALBUM=%albumtitle%" -T "DATE=%year%" -T "TRACKNUMBER=%tracknr%" -T "GENRE=%genre%" -T "COMMENT=%comment%" -T "BAND=%albuminterpret%" -T "ALBUMARTIST=%albuminterpret%" -T "COMPOSER=%composer%" %haslyrics%--tag-from-file=LYRICS="%lyricsfile%"%haslyrics% -T "DISCNUMBER=%cdnumber%" -T "TOTALDISCS=%totalcds%" -T "TOTALTRACKS=%numtracks%" %hascover%--picture="%coverfile%"%hascover% %source% -o %dest%

TOC of the extracted CD

     Track |   Start  |  Length  | Start sector | End sector
    ---------------------------------------------------------
        1  |  0:00.00 |  3:31.72 |         0    |    15896
        2  |  3:31.72 |  4:25.27 |     15897    |    35798
        3  |  7:57.24 |  6:24.02 |     35799    |    64600
        4  | 14:21.26 |  2:48.13 |     64601    |    77213
        5  | 17:09.39 |  2:41.15 |     77214    |    89303
        6  | 19:50.54 |  3:10.34 |     89304    |   103587
        7  | 23:01.13 |  3:53.30 |    103588    |   121092
        8  | 26:54.43 |  5:20.68 |    121093    |   145160
        9  | 32:15.36 |  7:04.06 |    145161    |   176966
       10  | 39:19.42 |  6:02.15 |    176967    |   204131
       11  | 45:21.57 |  4:56.27 |    204132    |   226358
       12  | 50:18.09 |  4:27.23 |    226359    |   246406
       13  | 54:45.32 |  4:33.31 |    246407    |   266912
       14  | 59:18.63 |  4:31.20 |    266913    |   287257
       15  | 63:50.08 |  4:02.29 |    287258    |   305436
       16  | 67:52.37 |  5:05.05 |    305437    |   328316
       17  | 72:57.42 |  5:47.61 |    328317    |   354402

Track  1

     Filename C:\Users\owner\Uploads\Ex\Chris Anderson Trio - My Romance & Inverted Image (1960-61) [FLAC]\01 - Wrap Your Troubles in Dreams.wav

     Pre-gap length  0:00:02.00

     Peak level 100.0 %
     Extraction speed 3.6 X
     Track quality 100.0 %
     Test CRC 6483DF69
     Copy CRC 6483DF69
     Track not present in AccurateRip database
     Copy OK

Track  2

     Filename C:\Users\owner\Uploads\Ex\Chris Anderson Trio - My Romance & Inverted Image (1960-61) [FLAC]\02 - So in Love.wav

     Pre-gap length  0:00:01.55

     Peak level 100.0 %
     Extraction speed 4.1 X
     Track quality 100.0 %
     Test CRC E662C591
     Copy CRC E662C591
     Track not present in AccurateRip database
     Copy OK

Track  3

     Filename C:\Users\owner\Uploads\Ex\Chris Anderson Trio - My Romance & Inverted Image (1960-61) [FLAC]\03 - You Stepped Out of a Dream.wav

     Pre-gap length  0:00:01.10

     Peak level 99.4 %
     Extraction speed 4.6 X
     Track quality 100.0 %
     Test CRC 247AF293
     Copy CRC 247AF293
     Track not present in AccurateRip database
     Copy OK

Track  4

     Filename C:\Users\owner\Uploads\Ex\Chris Anderson Trio - My Romance & Inverted Image (1960-61) [FLAC]\04 - Soon.wav

     Pre-gap length  0:00:01.58

     Peak level 99.3 %
     Extraction speed 4.6 X
     Track quality 100.0 %
     Test CRC C3390C6F
     Copy CRC C3390C6F
     Track not present in AccurateRip database
     Copy OK

Track  5

     Filename C:\Users\owner\Uploads\Ex\Chris Anderson Trio - My Romance & Inverted Image (1960-61) [FLAC]\05 - Monica.wav

     Pre-gap length  0:00:02.03

     Peak level 100.0 %
     Extraction speed 4.7 X
     Track quality 100.0 %
     Test CRC 21809B57
     Copy CRC 21809B57
     Track not present in AccurateRip database
     Copy OK

Track  6

     Filename C:\Users\owner\Uploads\Ex\Chris Anderson Trio - My Romance & Inverted Image (1960-61) [FLAC]\06 - A Fellow Needs a Girl.wav

     Pre-gap length  0:00:01.40

     Peak level 100.0 %
     Extraction speed 5.1 X
     Track quality 100.0 %
     Test CRC 3C4AC990
     Copy CRC 3C4AC990
     Track not present in AccurateRip database
     Copy OK

Track  7

     Filename C:\Users\owner\Uploads\Ex\Chris Anderson Trio - My Romance & Inverted Image (1960-61) [FLAC]\07 - I Could Write a Book.wav

     Pre-gap length  0:00:01.48

     Peak level 100.0 %
     Extraction speed 4.3 X
     Track quality 99.9 %
     Test CRC 46DE4837
     Copy CRC 46DE4837
     Track not present in AccurateRip database
     Copy OK

Track  8

     Filename C:\Users\owner\Uploads\Ex\Chris Anderson Trio - My Romance & Inverted Image (1960-61) [FLAC]\08 - My Romance.wav

     Pre-gap length  0:00:01.67

     Peak level 100.0 %
     Extraction speed 5.9 X
     Track quality 100.0 %
     Test CRC 8F395EF4
     Copy CRC 8F395EF4
     Track not present in AccurateRip database
     Copy OK

Track  9

     Filename C:\Users\owner\Uploads\Ex\Chris Anderson Trio - My Romance & Inverted Image (1960-61) [FLAC]\09 - Love Letters.wav

     Pre-gap length  0:00:01.61

     Peak level 100.0 %
     Extraction speed 6.4 X
     Track quality 100.0 %
     Test CRC A6DFAD76
     Copy CRC A6DFAD76
     Track not present in AccurateRip database
     Copy OK

Track 10

     Filename C:\Users\owner\Uploads\Ex\Chris Anderson Trio - My Romance & Inverted Image (1960-61) [FLAC]\10 - Inverted Images.wav

     Pre-gap length  0:00:01.43

     Peak level 96.8 %
     Extraction speed 5.7 X
     Track quality 99.9 %
     Test CRC 971D40AE
     Copy CRC 971D40AE
     Track not present in AccurateRip database
     Copy OK

Track 11

     Filename C:\Users\owner\Uploads\Ex\Chris Anderson Trio - My Romance & Inverted Image (1960-61) [FLAC]\11 - Lullaby of the Leaves.wav

     Pre-gap length  0:00:02.50

     Peak level 100.0 %
     Extraction speed 6.9 X
     Track quality 100.0 %
     Test CRC 9E1E5384
     Copy CRC 9E1E5384
     Track not present in AccurateRip database
     Copy OK

Track 12

     Filename C:\Users\owner\Uploads\Ex\Chris Anderson Trio - My Romance & Inverted Image (1960-61) [FLAC]\12 - My Funny Valentine.wav

     Pre-gap length  0:00:02.11

     Peak level 99.9 %
     Extraction speed 7.0 X
     Track quality 100.0 %
     Test CRC F344D928
     Copy CRC F344D928
     Track not present in AccurateRip database
     Copy OK

Track 13

     Filename C:\Users\owner\Uploads\Ex\Chris Anderson Trio - My Romance & Inverted Image (1960-61) [FLAC]\13 - See You Saturday.wav

     Pre-gap length  0:00:02.38

     Peak level 99.5 %
     Extraction speed 7.1 X
     Track quality 100.0 %
     Test CRC B08D7AFF
     Copy CRC B08D7AFF
     Track not present in AccurateRip database
     Copy OK

Track 14

     Filename C:\Users\owner\Uploads\Ex\Chris Anderson Trio - My Romance & Inverted Image (1960-61) [FLAC]\14 - Dancing in the Dark.wav

     Pre-gap length  0:00:01.73

     Peak level 99.9 %
     Extraction speed 6.0 X
     Track quality 99.9 %
     Test CRC EE0D5559
     Copy CRC EE0D5559
     Track not present in AccurateRip database
     Copy OK

Track 15

     Filename C:\Users\owner\Uploads\Ex\Chris Anderson Trio - My Romance & Inverted Image (1960-61) [FLAC]\15 - Only One.wav

     Pre-gap length  0:00:02.09

     Peak level 100.0 %
     Extraction speed 7.5 X
     Track quality 100.0 %
     Test CRC 2287FD77
     Copy CRC 2287FD77
     Track not present in AccurateRip database
     Copy OK

Track 16

     Filename C:\Users\owner\Uploads\Ex\Chris Anderson Trio - My Romance & Inverted Image (1960-61) [FLAC]\16 - I Hear a Rhapsody.wav

     Pre-gap length  0:00:02.03

     Peak level 87.0 %
     Extraction speed 7.8 X
     Track quality 100.0 %
     Test CRC C95BA7CF
     Copy CRC C95BA7CF
     Track not present in AccurateRip database
     Copy OK

Track 17

     Filename C:\Users\owner\Uploads\Ex\Chris Anderson Trio - My Romance & Inverted Image (1960-61) [FLAC]\17 - You'd Be So Nice to Come Home to.wav

     Pre-gap length  0:00:01.56

     Peak level 100.0 %
     Extraction speed 8.2 X
     Track quality 100.0 %
     Test CRC 2FB1AD6C
     Copy CRC 2FB1AD6C
     Track not present in AccurateRip database
     Copy OK

None of the tracks are present in the AccurateRip database

No errors occurred

End of status report

==== Log checksum F5BA30A4B16B302DD65D20C2103B16428A37CAB952982BDF3D984D81FD420CD0 ====
Содержание индексной карты (.CUE)
REM GENRE Jazz
REM DATE 2012
REM DISCID E7127511
REM COMMENT "ExactAudioCopy v1.0b3"
PERFORMER "Chris Anderson"
TITLE "My Romance, Inverted Image"
FILE "01 - Wrap Your Troubles in Dreams.wav" WAVE
  TRACK 01 AUDIO
    TITLE "Wrap Your Troubles in Dreams"
    PERFORMER "Chris Anderson"
    INDEX 01 00:00:00
  TRACK 02 AUDIO
    TITLE "So in Love"
    PERFORMER "Chris Anderson"
    INDEX 00 03:30:17
FILE "02 - So in Love.wav" WAVE
    INDEX 01 00:00:00
  TRACK 03 AUDIO
    TITLE "You Stepped Out of a Dream"
    PERFORMER "Chris Anderson"
    INDEX 00 04:24:17
FILE "03 - You Stepped Out of a Dream.wav" WAVE
    INDEX 01 00:00:00
  TRACK 04 AUDIO
    TITLE "Soon"
    PERFORMER "Chris Anderson"
    INDEX 00 06:22:19
FILE "04 - Soon.wav" WAVE
    INDEX 01 00:00:00
  TRACK 05 AUDIO
    TITLE "Monica"
    PERFORMER "Chris Anderson"
    INDEX 00 02:46:10
FILE "05 - Monica.wav" WAVE
    INDEX 01 00:00:00
  TRACK 06 AUDIO
    TITLE "A Fellow Needs a Girl"
    PERFORMER "Chris Anderson"
    INDEX 00 02:39:50
FILE "06 - A Fellow Needs a Girl.wav" WAVE
    INDEX 01 00:00:00
  TRACK 07 AUDIO
    TITLE "I Could Write a Book"
    PERFORMER "Chris Anderson"
    INDEX 00 03:08:61
FILE "07 - I Could Write a Book.wav" WAVE
    INDEX 01 00:00:00
  TRACK 08 AUDIO
    TITLE "My Romance"
    PERFORMER "Chris Anderson"
    INDEX 00 03:51:38
FILE "08 - My Romance.wav" WAVE
    INDEX 01 00:00:00
  TRACK 09 AUDIO
    TITLE "Love Letters"
    PERFORMER "Chris Anderson"
    INDEX 00 05:19:07
FILE "09 - Love Letters.wav" WAVE
    INDEX 01 00:00:00
  TRACK 10 AUDIO
    TITLE "Inverted Images"
    PERFORMER "Chris Anderson"
    INDEX 00 07:02:38
FILE "10 - Inverted Images.wav" WAVE
    INDEX 01 00:00:00
  TRACK 11 AUDIO
    TITLE "Lullaby of the Leaves"
    PERFORMER "Chris Anderson"
    INDEX 00 05:59:40
FILE "11 - Lullaby of the Leaves.wav" WAVE
    INDEX 01 00:00:00
  TRACK 12 AUDIO
    TITLE "My Funny Valentine"
    PERFORMER "Chris Anderson"
    INDEX 00 04:54:16
FILE "12 - My Funny Valentine.wav" WAVE
    INDEX 01 00:00:00
  TRACK 13 AUDIO
    TITLE "See You Saturday"
    PERFORMER "Chris Anderson"
    INDEX 00 04:24:60
FILE "13 - See You Saturday.wav" WAVE
    INDEX 01 00:00:00
  TRACK 14 AUDIO
    TITLE "Dancing in the Dark"
    PERFORMER "Chris Anderson"
    INDEX 00 04:31:33
FILE "14 - Dancing in the Dark.wav" WAVE
    INDEX 01 00:00:00
  TRACK 15 AUDIO
    TITLE "Only One"
    PERFORMER "Chris Anderson"
    INDEX 00 04:29:11
FILE "15 - Only One.wav" WAVE
    INDEX 01 00:00:00
  TRACK 16 AUDIO
    TITLE "I Hear a Rhapsody"
    PERFORMER "Chris Anderson"
    INDEX 00 04:00:26
FILE "16 - I Hear a Rhapsody.wav" WAVE
    INDEX 01 00:00:00
  TRACK 17 AUDIO
    TITLE "You'd Be So Nice to Come Home To"
    PERFORMER "Chris Anderson"
    INDEX 00 05:03:24
FILE "17 - You'd Be So Nice to Come Home To.wav" WAVE
    INDEX 01 00:00:00
Приватный:
Нет (DHT включён)
Размер:
448.39 Мб (470,174,321 байт) » файлов: 29
Участники:
0 раздают, 0 качают (0 участников всего)
Внешние участники:
1 раздают, 0 качают (1 участников всего) [ Обновить ]
14:53
43
RSS
Нет комментариев. Ваш будет первым!