Поиск

1959 (1991) Benny Golson - The Other Side Of Benny Golson

1959 (1991) Benny Golson - The Other Side Of Benny Golson
Дата записи диска:
12 ноября 1958
Дата издания диска:
февраль 1959
Дата переиздания диска:
1 июля 1991
Издатель (лейбл):
Номер по каталогу:
OJCD-1750-2 (RLP-12-290)
Носитель:
CD
Битрейт аудио:
lossless
Аудиокодек:
APE (*.ape)
Тип рипа:
image+.cue
Время звучания:
37:06
Наличие сканов:
  • да
Релизёр (источник):
J23enya
Треклист:

1. Strut Time 6:03
2. Jubilation 6:18
3. Symptoms 5:58
4. Are You Real? 5:37
5. Cry A Blue Tear 5:20
6. This Is Night 7:50

Состав:

Recorded at Nola Studios, New York, New York.
Лог создания рипа
<spoiler title="Лог создания рипа"><pre>Exact Audio Copy V0.99 prebeta 1 from 25. May 2007
EAC extraction logfile from 3. September 2007, 0:57
Benny Golson / The Other Side Of Benny Golson
Used drive : PIONEER DVD-RW DVR-108 Adapter: 0 ID: 2
Read mode : Secure
Utilize accurate stream : Yes
Defeat audio cache : Yes
Make use of C2 pointers : No
Read offset correction : 48
Overread into Lead-In and Lead-Out : Yes
Fill up missing offset samples with silence : Yes
Delete leading and trailing silent blocks : No
Used interface : Installed external ASPI interface
Used output format : Monkey's Audio Lossless Encoder
Selected bitrate : Normal Lossless Compression
Quality : High
Add ID3 tag : Yes
Command line compressor : C:\Program Files\Monkey's Audio\MAC.exe
TOC of the extracted CD
Track | Start | Length | Start sector | End sector
---------------------------------------------------------
1 | 0:00.00 | 6:08.72 | 0 | 27671
2 | 6:08.72 | 6:26.73 | 27672 | 56694
3 | 12:35.70 | 6:06.17 | 56695 | 84161
4 | 18:42.12 | 5:41.15 | 84162 | 109751
5 | 24:23.27 | 5:24.43 | 109752 | 134094
6 | 29:47.70 | 7:51.27 | 134095 | 169446
Range status and errors
Selected range
Filename C:\Documents and Settings\Mius\My Documents\My Music\Benny Golson - The Other Side Of Benny Golson\Benny Golson - The Other Side Of Benny Golson.wav
Peak level 95.9 %
Range quality 100.0 %
Copy CRC 9C3A55B4
Copy OK
No errors occurred
End of status report</pre></spoiler>
Приватный:
Нет (DHT включён)
Размер:
191.56 Мб (200,868,133 байт) » файлов: 15
Участники:
0 раздают, 0 качают (0 участников всего)
Внешние участники:
3 раздают, 1 качают (4 участников всего) [ Обновить ]
17:14
67
RSS
Нет комментариев. Ваш будет первым!