Поиск

1958 (2007) Ahmad Jamal Trio - Complete Live At The Spotlite Club 1958 {Gambit 69265}

1958 (2007) Ahmad Jamal Trio - Complete Live At The Spotlite Club 1958 {Gambit 69265}
Страна-производитель диска (релиза):
USA
Дата записи диска:
1958
Дата издания диска:
5 февраля 2007
Номер по каталогу:
69265
Носитель:
CD
Битрейт аудио:
lossless
Аудиокодек:
FLAC (*.flac)
Тип рипа:
tracks
Время звучания:
CD1 - 56:52, CD2 - 49:56
Наличие сканов:
  • да
Релизёр (источник):
AlexMachen

Треклист:

CD 01
01 - Ahmad's Blues (4:04)
02 - It Could Happen To You (4:17)
03 - I Wish I Knew (3:45)
04 - Autumn Leaves (7:40)
05 - Stompin' At the Savoy (4:15)
06 - Cheek To Cheek (4:47)
07 - The Girl Next Door (3:27)
08 - Secret Love (3:52)
09 - Squatty Roo (2:19)
10 - Taboo (4:01)
11 - Autumn in New York (3:18)
12 - A Gal in Calico (4:44)
13 - That's All (2:39)
14 - Should I (3:42)
CD2
01 - Seleritus (3:13)
02 - Let's Fall In Love (5:09)
03 - This Can't be Love (5:12)
04 - Ole Devil Moon (3:57)
05 - Ivy (3:09)
06 - Tater Pie (3:07)
07 - Aki & Ukthay (Brother & Sister) (3:17)
08 - You Don't Know What Love Is (3:30)
09 - I Didn't Know What Time It Was (4:36)
10 - So Beats My Heart For You (3:42)
11 - Our Delight (3:01)
12 - Soft Winds (3:22)
13 - Secret Love (2:50)
14 - Taking a Chance on Love (1:52)

Состав:

Ahmad Jamal Composer, Piano
John F. H/artists//artists//artists//artists//artists//artists//artists//artists//artists//artists//artists//artists//artists//artists//artists//artists//artists//artists//artists//artists//artists//artists//artists//artists//artists//artists//artists//artists//artists//artists//artists//artists//artists//artists/amm.html">AMM

.html">AMM.html">AMM.html">AMM.html">AMM.html">AMM.html">AMM.html">AMM.html">AMM.html">AMM.html">AMM.html">AMM.html">AMM.html">AMM.html">AMM.html">AMM.html">AMM.html">AMM.html">AMM.html">AMM.html">AMM.html">AMM.html">AMM.html">AMM.html">AMM.html">AMM.html">AMM.html">AMM.html">AMM.html">AMM.html">AMM.html">AMM.html">AMM.html">AMM.html">AMM.html">AMM.html">AMM.html">AMM.html">AMM.html">AMM.html">AMM.html">AMM.html">AMM.html">AMM.html">AMM.html">AMM.html">AMM.html">AMM-88.html">AMM-88.html">AMM-88.html">AMM-88.html">AMM-88.html">AMM-88.html">AMM-88.html">AMM-88.html">AMM-88.html">AMM-88.html">AMM-88.html">AMM-88.html">AMM-88.html">AMM-88.html">AMM-88.html">AMM-88.html">AMM-88.html">AMM-88.html">AMM-88.html">AMM-88.html">AMMond Liner Notes
Israel Crosby Bass
Vernell Fournier Drums
Лог создания рипа
Отчёт EAC CD1
EAC extraction logfile from 25. October 2007, 0:00 for CD
Ahmad Jamal Trio / Live At The Spotlite Club 1958 (CD1 of 2 CD)

Used drive : PLEXTOR DVDR PX-755A Adapter: 1 ID: 0
Read mode : Secure with NO C2, accurate stream, disable cache
Read offset correction : 30
Overread into Lead-In and Lead-Out : Yes

Used output format : Internal WAV Routines
44.100 Hz; 16 Bit; Stereo

Other options :
Fill up missing offset samples with silence : Yes
Delete leading and trailing silent blocks : No
Installed external ASPI interface

Track 1
Filename C:\Audio\Ahmad Jamal Trio - Complete Live At The Spotlite Club 1958 (2007) [FLAC]\CD1 of 2 CD\01 - Ahmad's Blues.wav

Pre-gap length 0:00:02.00

Peak level 98.8 %
Track quality 100.0 %
Test CRC 6D1DEFE1
Copy CRC 6D1DEFE1
Copy OK

Track 2
Filename C:\Audio\Ahmad Jamal Trio - Complete Live At The Spotlite Club 1958 (2007) [FLAC]\CD1 of 2 CD\02 - It Could Happen To You.wav

Peak level 98.8 %
Track quality 100.0 %
Test CRC 5DD90EC4
Copy CRC 5DD90EC4
Copy OK

Track 3
Filename C:\Audio\Ahmad Jamal Trio - Complete Live At The Spotlite Club 1958 (2007) [FLAC]\CD1 of 2 CD\03 - I Wish I Knew.wav

Peak level 98.8 %
Track quality 100.0 %
Test CRC FBA4C6F8
Copy CRC FBA4C6F8
Copy OK

Track 4
Filename C:\Audio\Ahmad Jamal Trio - Complete Live At The Spotlite Club 1958 (2007) [FLAC]\CD1 of 2 CD\04 - Autumn Leaves.wav

Peak level 100.0 %
Track quality 100.0 %
Test CRC 4F8761C3
Copy CRC 4F8761C3
Copy OK

Track 5
Filename C:\Audio\Ahmad Jamal Trio - Complete Live At The Spotlite Club 1958 (2007) [FLAC]\CD1 of 2 CD\05 - Stompin' At the Savoy.wav

Peak level 90.0 %
Track quality 99.9 %
Test CRC F8A17300
Copy CRC F8A17300
Copy OK

Track 6
Filename C:\Audio\Ahmad Jamal Trio - Complete Live At The Spotlite Club 1958 (2007) [FLAC]\CD1 of 2 CD\06 - Cheek To Cheek.wav

Peak level 98.8 %
Track quality 100.0 %
Test CRC 5C36ED39
Copy CRC 5C36ED39
Copy OK

Track 7
Filename C:\Audio\Ahmad Jamal Trio - Complete Live At The Spotlite Club 1958 (2007) [FLAC]\CD1 of 2 CD\07 - The Girl Next Door.wav

Peak level 98.8 %
Track quality 100.0 %
Test CRC DE6C2B39
Copy CRC DE6C2B39
Copy OK

Track 8
Filename C:\Audio\Ahmad Jamal Trio - Complete Live At The Spotlite Club 1958 (2007) [FLAC]\CD1 of 2 CD\08 - Secret Love.wav

Peak level 98.8 %
Track quality 100.0 %
Test CRC F07F1AC5
Copy CRC F07F1AC5
Copy OK

Track 9
Filename C:\Audio\Ahmad Jamal Trio - Complete Live At The Spotlite Club 1958 (2007) [FLAC]\CD1 of 2 CD\09 - Squatty Roo.wav

Peak level 98.8 %
Track quality 100.0 %
Test CRC F5515498
Copy CRC F5515498
Copy OK

Track 10
Filename C:\Audio\Ahmad Jamal Trio - Complete Live At The Spotlite Club 1958 (2007) [FLAC]\CD1 of 2 CD\10 - Taboo.wav

Peak level 94.4 %
Track quality 100.0 %
Test CRC ADBCD227
Copy CRC ADBCD227
Copy OK

Track 11
Filename C:\Audio\Ahmad Jamal Trio - Complete Live At The Spotlite Club 1958 (2007) [FLAC]\CD1 of 2 CD\11 - Autumn in New York.wav

Peak level 98.8 %
Track quality 100.0 %
Test CRC 04F8EC17
Copy CRC 04F8EC17
Copy OK

Track 12
Filename C:\Audio\Ahmad Jamal Trio - Complete Live At The Spotlite Club 1958 (2007) [FLAC]\CD1 of 2 CD\12 - A Gal in Calico.wav

Peak level 98.8 %
Track quality 100.0 %
Test CRC 2C0570BC
Copy CRC 2C0570BC
Copy OK

Track 13
Filename C:\Audio\Ahmad Jamal Trio - Complete Live At The Spotlite Club 1958 (2007) [FLAC]\CD1 of 2 CD\13 - That's All.wav

Peak level 70.2 %
Track quality 99.9 %
Test CRC 1AB0DB46
Copy CRC 1AB0DB46
Copy OK

Track 14
Filename C:\Audio\Ahmad Jamal Trio - Complete Live At The Spotlite Club 1958 (2007) [FLAC]\CD1 of 2 CD\14 - Should I.wav

Peak level 98.8 %
Track quality 100.0 %
Test CRC 09654257
Copy CRC 09654257
Copy OK

No errors occured

End of status report

Отчёт EAC CD2
EAC extraction logfile from 25. October 2007, 1:48 for CD
Ahmad Jamal Trio / Live At The Spotlite Club 1958 (CD2 of 2 CD)

Used drive : PLEXTOR DVDR PX-755A Adapter: 1 ID: 0
Read mode : Secure with NO C2, accurate stream, disable cache
Read offset correction : 30
Overread into Lead-In and Lead-Out : Yes

Used output format : Internal WAV Routines
44.100 Hz; 16 Bit; Stereo

Other options :
Fill up missing offset samples with silence : Yes
Delete leading and trailing silent blocks : No
Installed external ASPI interface

Track 1
Filename C:\Audio\Ahmad Jamal Trio - Complete Live At The Spotlite Club 1958 (2007) [FLAC]\CD2 of 2 CD\01 - Seleritus.wav

Pre-gap length 0:00:02.00

Peak level 100.0 %
Track quality 100.0 %
Test CRC 2214FC41
Copy CRC 2214FC41
Copy OK

Track 2
Filename C:\Audio\Ahmad Jamal Trio - Complete Live At The Spotlite Club 1958 (2007) [FLAC]\CD2 of 2 CD\02 - Let's Fall In Love.wav

Peak level 96.2 %
Track quality 100.0 %
Test CRC 8AEC1DB2
Copy CRC 8AEC1DB2
Copy OK

Track 3
Filename C:\Audio\Ahmad Jamal Trio - Complete Live At The Spotlite Club 1958 (2007) [FLAC]\CD2 of 2 CD\03 - This Can't be Love.wav

Peak level 100.0 %
Track quality 100.0 %
Test CRC 9BDD52A7
Copy CRC 9BDD52A7
Copy OK

Track 4
Filename C:\Audio\Ahmad Jamal Trio - Complete Live At The Spotlite Club 1958 (2007) [FLAC]\CD2 of 2 CD\04 - Ole Devil Moon.wav

Peak level 100.0 %
Track quality 99.9 %
Test CRC 8D214F45
Copy CRC 8D214F45
Copy OK

Track 5
Filename C:\Audio\Ahmad Jamal Trio - Complete Live At The Spotlite Club 1958 (2007) [FLAC]\CD2 of 2 CD\05 - Ivy.wav

Peak level 100.0 %
Track quality 100.0 %
Test CRC 61881C69
Copy CRC 61881C69
Copy OK

Track 6
Filename C:\Audio\Ahmad Jamal Trio - Complete Live At The Spotlite Club 1958 (2007) [FLAC]\CD2 of 2 CD\06 - Tater Pie.wav

Peak level 100.0 %
Track quality 100.0 %
Test CRC 133CDAE5
Copy CRC 133CDAE5
Copy OK

Track 7
Filename C:\Audio\Ahmad Jamal Trio - Complete Live At The Spotlite Club 1958 (2007) [FLAC]\CD2 of 2 CD\07 - Aki & Ukthay (Brother & Sister).wav

Peak level 100.0 %
Track quality 100.0 %
Test CRC 358C74DC
Copy CRC 358C74DC
Copy OK

Track 8
Filename C:\Audio\Ahmad Jamal Trio - Complete Live At The Spotlite Club 1958 (2007) [FLAC]\CD2 of 2 CD\08 - You Don't Know What Love Is.wav

Peak level 100.0 %
Track quality 100.0 %
Test CRC 5647FC49
Copy CRC 5647FC49
Copy OK

Track 9
Filename C:\Audio\Ahmad Jamal Trio - Complete Live At The Spotlite Club 1958 (2007) [FLAC]\CD2 of 2 CD\09 - I Didn't Know What Time It Was.wav

Peak level 100.0 %
Track quality 100.0 %
Test CRC 319BDAEB
Copy CRC 319BDAEB
Copy OK

Track 10
Filename C:\Audio\Ahmad Jamal Trio - Complete Live At The Spotlite Club 1958 (2007) [FLAC]\CD2 of 2 CD\10 - So Beats My Heart For You.wav

Peak level 100.0 %
Track quality 100.0 %
Test CRC CCC45CD9
Copy CRC CCC45CD9
Copy OK

Track 11
Filename C:\Audio\Ahmad Jamal Trio - Complete Live At The Spotlite Club 1958 (2007) [FLAC]\CD2 of 2 CD\11 - Our Delight.wav

Pre-gap length 0:00:02.00

Peak level 100.0 %
Track quality 100.0 %
Test CRC 9F28CFA3
Copy CRC 9F28CFA3
Copy OK

Track 12
Filename C:\Audio\Ahmad Jamal Trio - Complete Live At The Spotlite Club 1958 (2007) [FLAC]\CD2 of 2 CD\12 - Soft Winds.wav

Peak level 91.2 %
Track quality 100.0 %
Test CRC 79673F38
Copy CRC 79673F38
Copy OK

Track 13
Filename C:\Audio\Ahmad Jamal Trio - Complete Live At The Spotlite Club 1958 (2007) [FLAC]\CD2 of 2 CD\13 - Secret Love.wav

Peak level 90.6 %
Track quality 99.9 %
Test CRC F15B4A90
Copy CRC F15B4A90
Copy OK

Track 14
Filename C:\Audio\Ahmad Jamal Trio - Complete Live At The Spotlite Club 1958 (2007) [FLAC]\CD2 of 2 CD\14 - Taking a Chance on Love.wav

Pre-gap length 0:00:02.00

Peak level 64.4 %
Track quality 100.0 %
Test CRC B4265AA6
Copy CRC B4265AA6
Copy OK

No errors occured

End of status report
Приватный:
Нет (DHT включён)
Размер:
630.99 Мб (661,639,796 байт) » файлов: 48
Участники:
0 раздают, 0 качают (0 участников всего)
Внешние участники:
5 раздают, 1 качают (6 участников всего) [ Обновить ]
18:25
51
RSS
Нет комментариев. Ваш будет первым!