Поиск

1958 (1999) Bud Powell - Time Waits: The Amazing Bud Powell

1958 (1999) Bud Powell - Time Waits: The Amazing Bud Powell
Страна-производитель диска (релиза):
USA
Дата издания диска:
24 мая 1958
Дата переиздания диска:
1999
Номер по каталогу:
7243 5 21227 2 1
Носитель:
CD
Битрейт аудио:
lossless
Аудиокодек:
FLAC (*.flac)
Тип рипа:
tracks+.cue
Время звучания:
42:16
Наличие сканов:
  • да
Релизёр (источник):
ordo
Треклист:
01. Buster Rides Again 5:30
02. Sub City 4:32
03. Time Waits 5:06
04. Marmalade 4:28
05. Monopoly 4:47
06. John's Abbey 5:36
07. Dry Soul 6:41
08. Sub City 2:36
09. John's Abbey 2:25
Состав:

The Rudy Van Gelder Edition of TIME WAITS includes an essay by Bob Blumenthal.
Recorded at the Van Gelder Studio, Hackensack, New Jersey on May 24, 1958. Originally released on Blue Note (1598).
Includes liner notes by Leonard Feather and Bob Blumenthal.
Digitally remastered by Rudy Van Gelder.
This is part of the Blue Note Rudy Van Gelder Editions series.
Лог создания рипа
<spoiler title="Лог создания рипа"><pre>
Exact Audio Copy V0.99 prebeta 3 from 28. July 2007

Отчёт EAC об извлечении, выполненном 19. апреля 2008, 22:29

The Amazing Bud Powell / Time Waits

Дисковод: HL-DT-STDVDRAM GSA-4167B   Adapter: 0  ID: 0

Режим чтения                 : Достоверность
Использование точного потока : Да
Отключение кэша аудио        : Да
Использование указателей C2  : Нет

Коррекция смещения при чтении                     : 667
Способность читать области Lead-in и Lead-out     : Нет
Заполнение пропущенных сэмплов тишиной            : Да
Удаление блоков с тишиной в начале и конце        : Нет
При вычислениях CRC использовались нулевые сэмплы : Да
Интерфейс                                         : Встроенный Win32-интерфейс для Win NT/2000
Обработка зазоров                                 : Добавлено к предыдущему треку

Выходной формат          : Пользовательский кодировщик
Выбранный битрейт        : 768 kBit/s
Качество                 : Высокий
Добавление ID3-тэга      : Да
Утилита сжатия           : C:\Program Files\Exact Audio Copy\Flac\flac.exe
Дополнительные параметры : -8 -V -T "artist=%a" -T "title=%t" -T "album=%g" -T "date=%y" -T "tracknumber=%n" -T "genre=%m" -T "comment=ordo" -5 %s

TOC извлечённого CD

     Трек |   Старт  | Длительность | Начальный сектор | Конечный сектор
    ---------------------------------------------------------------------
       1  |  0:00.00 |    5:34.36   |           0      |      25085
       2  |  5:34.36 |    4:36.66   |       25086      |      45851
       3  | 10:11.27 |    5:09.74   |       45852      |      69100
       4  | 15:21.26 |    4:31.68   |       69101      |      89493
       5  | 19:53.19 |    4:51.58   |       89494      |     111376
       6  | 24:45.02 |    5:40.38   |      111377      |     136914
       7  | 30:25.40 |    6:45.51   |      136915      |     167340
       8  | 37:11.16 |    2:39.58   |      167341      |     179323
       9  | 39:50.74 |    2:25.42   |      179324      |     190240

Трек  1

     Имя файла G:\Muzlo\JAZZ\BIG JAZZ\RIPER-CUTTER\01 - Buster Rides Again.wav

     Длина предзазора  0:00:02.00

     Пиковый уровень 97.9 %
     Качество трека 100.0 %
     CRC копии 6FA1286D
     Трек не обнаружен в базе AccurateRip
     Копирование... OK

Трек  2

     Имя файла G:\Muzlo\JAZZ\BIG JAZZ\RIPER-CUTTER\02 - Sub City.wav

     Длина предзазора  0:00:03.59

     Пиковый уровень 97.9 %
     Качество трека 100.0 %
     CRC копии EA5CE091
     Трек не обнаружен в базе AccurateRip
     Копирование... OK

Трек  3

     Имя файла G:\Muzlo\JAZZ\BIG JAZZ\RIPER-CUTTER\03 - Time Waits.wav

     Длина предзазора  0:00:03.73

     Пиковый уровень 97.9 %
     Качество трека 100.0 %
     CRC копии 5DF510AB
     Трек не обнаружен в базе AccurateRip
     Копирование... OK

Трек  4

     Имя файла G:\Muzlo\JAZZ\BIG JAZZ\RIPER-CUTTER\04 - Marmalade.wav

     Длина предзазора  0:00:03.74

     Пиковый уровень 97.9 %
     Качество трека 100.0 %
     CRC копии E4C34735
     Трек не обнаружен в базе AccurateRip
     Копирование... OK

Трек  5

     Имя файла G:\Muzlo\JAZZ\BIG JAZZ\RIPER-CUTTER\05 - Monopoly.wav

     Длина предзазора  0:00:03.40

     Пиковый уровень 97.9 %
     Качество трека 100.0 %
     CRC копии 866747D4
     Трек не обнаружен в базе AccurateRip
     Копирование... OK

Трек  6

     Имя файла G:\Muzlo\JAZZ\BIG JAZZ\RIPER-CUTTER\06 - John's Abbey.wav

     Длина предзазора  0:00:03.65

     Пиковый уровень 97.9 %
     Качество трека 100.0 %
     CRC копии EED9E484
     Трек не обнаружен в базе AccurateRip
     Копирование... OK

Трек  7

     Имя файла G:\Muzlo\JAZZ\BIG JAZZ\RIPER-CUTTER\07 - Dry Soul.wav

     Длина предзазора  0:00:03.64

     Пиковый уровень 96.2 %
     Качество трека 100.0 %
     CRC копии B64C0DCC
     Трек не обнаружен в базе AccurateRip
     Копирование... OK

Трек  8

     Имя файла G:\Muzlo\JAZZ\BIG JAZZ\RIPER-CUTTER\08 - Sub City (Alternate Take).wav

     Длина предзазора  0:00:03.52

     Пиковый уровень 97.9 %
     Качество трека 100.0 %
     CRC копии 444656C3
     Трек не обнаружен в базе AccurateRip
     Копирование... OK

Трек  9

     Имя файла G:\Muzlo\JAZZ\BIG JAZZ\RIPER-CUTTER\09 - John's Abbey (Alternate Take).wav

     Длина предзазора  0:00:03.50

     Пиковый уровень 97.9 %
     Качество трека 100.0 %
     CRC копии A0F00027
     Трек не обнаружен в базе AccurateRip
     Копирование... OK

Ни одного трека нет в базе AccurateRip

Ошибок не произошло

Конец отчёта
</pre></spoiler>
Содержание индексной карты (.CUE)
<spoiler title="Содержание индексной карты (.CUE)"><pre>
REM GENRE Jazz
REM DATE 1958
REM DISCID 7609E809
REM COMMENT "ExactAudioCopy v0.99pb3"
PERFORMER "The Amazing Bud Powell"
TITLE "Time Waits"
FILE "01 - Buster Rides Again.wav" WAVE
  TRACK 01 AUDIO
    TITLE "Buster Rides Again"
    PERFORMER "The Amazing Bud Powell"
    FLAGS DCP
    INDEX 01 00:00:00
  TRACK 02 AUDIO
    TITLE "Sub City"
    PERFORMER "The Amazing Bud Powell"
    FLAGS DCP
    INDEX 00 05:30:52
FILE "02 - Sub City.wav" WAVE
    INDEX 01 00:00:00
  TRACK 03 AUDIO
    TITLE "Time Waits"
    PERFORMER "The Amazing Bud Powell"
    FLAGS DCP
    INDEX 00 04:32:68
FILE "03 - Time Waits.wav" WAVE
    INDEX 01 00:00:00
  TRACK 04 AUDIO
    TITLE "Marmalade"
    PERFORMER "The Amazing Bud Powell"
    FLAGS DCP
    INDEX 00 05:06:00
FILE "04 - Marmalade.wav" WAVE
    INDEX 01 00:00:00
  TRACK 05 AUDIO
    TITLE "Monopoly"
    PERFORMER "The Amazing Bud Powell"
    FLAGS DCP
    INDEX 00 04:28:28
FILE "05 - Monopoly.wav" WAVE
    INDEX 01 00:00:00
  TRACK 06 AUDIO
    TITLE "John's Abbey"
    PERFORMER "The Amazing Bud Powell"
    FLAGS DCP
    INDEX 00 04:47:68
FILE "06 - John's Abbey.wav" WAVE
    INDEX 01 00:00:00
  TRACK 07 AUDIO
    TITLE "Dry Soul"
    PERFORMER "The Amazing Bud Powell"
    FLAGS DCP
    INDEX 00 05:36:49
FILE "07 - Dry Soul.wav" WAVE
    INDEX 01 00:00:00
  TRACK 08 AUDIO
    TITLE "Sub City (Alternate Take)"
    PERFORMER "The Amazing Bud Powell"
    FLAGS DCP
    INDEX 00 06:41:74
FILE "08 - Sub City (Alternate Take).wav" WAVE
    INDEX 01 00:00:00
  TRACK 09 AUDIO
    TITLE "John's Abbey (Alternate Take)"
    PERFORMER "The Amazing Bud Powell"
    FLAGS DCP
    INDEX 00 02:36:08
FILE "09 - John's Abbey (Alternate Take).wav" WAVE
    INDEX 01 00:00:00
</pre></spoiler>
Приватный:
Нет (DHT включён)
Размер:
249.15 Мб (261,252,981 байт) » файлов: 20
Участники:
0 раздают, 0 качают (0 участников всего)
Внешние участники:
5 раздают, 1 качают (6 участников всего) [ Обновить ]
Скорость:
Торрент не зарегистрирован на трекере
02:06
54
RSS
Нет комментариев. Ваш будет первым!