Поиск

1958, 1960 (1994) Oscar Peterson Trio - Oscar Peterson Plays My Fair Lady & The Music from Fiorello! {Verve/Polygram 314 521 677-2}

1958, 1960 (1994) Oscar Peterson Trio - Oscar Peterson Plays My Fair Lady & The Music from Fiorello! {Verve/Polygram 314 521 677-2}
Страна-производитель диска (релиза):
Canada
Дата записи диска:
20 ноября 1958 - январь 1960
Дата издания диска:
1958 / 1960
Дата переиздания диска:
26 июля 1996
Номер по каталогу:
314 521 677-2
Носитель:
CD
Битрейт аудио:
lossless
Аудиокодек:
APE (*.ape)
Тип рипа:
image+.cue
Время звучания:
77:39
Наличие сканов:
  • да
Релизёр (источник):
alexsor
Треклист:

01. I've Grown Accustomed to Her Face [06:37]
02. Get Me to the Church on Time [06:44]
03. Show Me [06:21]
04. I Could Have Danced All Night [05:20]
05. On the Street Where You Live [05:33]
06. Woulden't it Be Lovely? [05:34]
07. The Rain in Spain [03:54]
08. When Did I Fall in Love? [04:34]
09. Little Tin Box [04:17]
10. Home Again [03:06]
11. Till Tomororow [02:45]
12. Politics and Poker [04:15]
13. Gentleman Jimmy [03:34]
14. Unfair [03:57]
15. On the Side of the Angels [06:36]
16. Where Do I Go from Here [04:22]

Состав:
  • Ray Brown Bass
  • Gene G/artists//artists//artists//artists//artists//artists//artists//artists//artists//artists//artists//artists//artists//artists//artists//artists//artists//artists//artists//artists//artists//artists//artists//artists//artists//artists//artists//artists//artists//artists//artists/amm.html">AMM
  • .html">AMM
.html">AMM.html">AMM.html">AMM.html">AMM.html">AMM.html">AMM.html">AMM.html">AMM.html">AMM.html">AMM.html">AMM.html">AMM.html">AMM.html">AMM.html">AMM.html">AMM.html">AMM.html">AMM.html">AMM.html">AMM.html">AMM.html">AMM.html">AMM.html">AMM.html">AMM.html">AMM.html">AMM.html">AMM.html">AMM.html">AMM.html">AMM.html">AMM.html">AMM.html">AMM.html">AMM.html">AMM.html">AMM.html">AMM.html">AMM.html">AMM-88.html">AMM-88.html">AMM-88.html">AMM-88.html">AMM-88.html">AMM-88.html">AMM-88.html">AMM-88.html">AMM-88.html">AMM-88.html">AMM-88.html">AMM-88.html">AMM-88.html">AMM-88.html">AMM-88.html">AMM-88.html">AMM-88.html">AMM-88.html">AMM-88.html">AMM-88.html">AMMage Drums Norman Granz Producer Burt Korall Liner Notes Oscar Peterson Piano Phil Schaap Research, Restoration Richard Seidel Executive Producer Ed Thigpen Drums
<spoiler title="Лог создания рипа"><pre>
Exact Audio Copy V0.99 prebeta 3 from 28. July 2007
Отчёт EAC об извлечении, выполненном 25. декабря 2007, 18:22
The Oscar Peterson Trio / Plays My Fair Lady And The Music From Fiorello!
Дисковод: Optiarc DVD RW AD-7170S Adapter: 2 ID: 0
Режим чтения : Достоверность
Использование точного потока : Да
Отключение кэша аудио : Да
Использование указателей C2 : Нет
Коррекция смещения при чтении : 48
Способность читать области Lead-in и Lead-out : Нет
Заполнение пропущенных сэмплов тишиной : Да
Удаление блоков с тишиной в начале и конце : Нет
При вычислениях CRC использовались нулевые сэмплы : Нет
Интерфейс : Установленный внешний ASPI-интерфейс
Выходной формат : Monkey's Audio Lossless Encoder v3.99 DLL
Формат сэмплов : Normal Lossless Compression
TOC извлечённого CD
Трек | Старт | Длительность | Начальный сектор | Конечный сектор
---------------------------------------------------------------------
1 | 0:00.00 | 6:37.65 | 0 | 29839
2 | 6:37.65 | 6:44.70 | 29840 | 60209
3 | 13:22.60 | 6:21.52 | 60210 | 88836
4 | 19:44.37 | 5:20.65 | 88837 | 112901
5 | 25:05.27 | 5:33.68 | 112902 | 137944
6 | 30:39.20 | 5:34.60 | 137945 | 163054
7 | 36:14.05 | 3:54.62 | 163055 | 180666
8 | 40:08.67 | 4:34.25 | 180667 | 201241
9 | 44:43.17 | 4:17.60 | 201242 | 220576
10 | 49:01.02 | 3:06.28 | 220577 | 234554
11 | 52:07.30 | 2:45.17 | 234555 | 246946
12 | 54:52.47 | 4:15.43 | 246947 | 266114
13 | 59:08.15 | 3:34.22 | 266115 | 282186
14 | 62:42.37 | 3:57.25 | 282187 | 299986
15 | 66:39.62 | 6:36.53 | 299987 | 329739
16 | 73:16.40 | 4:22.67 | 329740 | 349456
Характеристики диапазона извлечения и сообщения об ошибках
Выбранный диапазон
Имя файла C:\EAC\The Oscar Peterson Trio - Plays My Fair Lady And The Music From Fiorello!.ape
Пиковый уровень 98.6 %
Качество диапазона 100.0 %
CRC копии 69CEEC87
Копирование... OK
Ошибок не произошло
Конец отчёта
<pre></spoiler>
21:54
34
RSS
Нет комментариев. Ваш будет первым!