Поиск

1953, 1958 (1991) Laurindo Almeida & Bud Shank - Brazilliance Vol. 1&2 (2CD) {World Pacific CDP 7 96339 2}

1953, 1958 (1991) Laurindo Almeida & Bud Shank - Brazilliance Vol. 1&2 (2CD) {World Pacific CDP 7 96339 2}
Дата записи диска:
15-22 апреля 1953
Дата издания диска:
1991
Издатель (лейбл):
Номер по каталогу:
CDP 7 96339 2
Носитель:
CD
Битрейт аудио:
lossless
Аудиокодек:
FLAC (*.flac)
Тип рипа:
tracks+.cue
Время звучания:
01:51:42
Наличие сканов:
  • да
Релизёр (источник):
user787878
Треклист:

CD01
01. Atabaque [02:49]
02. Amor Flamengo [02:57]
03. Stairway to the Stars [03:01]
04. Acertate Mas [03:03]
05. Terra Seca [03:12]
06. Speak Low [02:22]
07. Speak Low (alt. take) [02:31]
08. Inquietacao [03:04]
09. Baa-Too-Kee [03:03]
10. Carinoso [03:35]
11. Tocata [04:47]
12. Hazardous [02:50]
13. Nona [03:01]
14. Noctambulism [04:39]
15. Blue Baiao [03:18]

CD02
01. Simpatico [02:57]
02. Rio Rhapsody [03:41]
03. Nocturno [03:32]
04. Little Girl Blue [02:41]
05. Choro In ''A'' [02:33]
06. Mood Antigua [04:06]
07. The Color Of Her Hair [01:59]
08. Lonely [03:55]
09. I Didn't Know What Time It Was [02:49]
10. Carioca Hills [03:08]
11. Harlem Samba [02:26]
12. North Of The Border [02:40]
13. Sunset Baion [02:04]
14. 'Round Midnight [03:54]
15. Toro Dance [02:54]
16. Serenade For Alto [03:36]
17. Xana-Lyn [03:30]
18. Blowing Wild [03:29]
19. Gershwin Prelude [03:59]
20. Waltz Frio Y Calor [03:21]

Состав:

Laurindo Almeida    Composer, Guitar
Harry Babasin    Bass, Composer
Richard Bock    Producer
Richard Bock    Producer
Michael Cuscuna    Producer
Chuck Flores    Drums
Roy Harte    Drums
Gary Peacock    Bass
Bud Shank    Sax (Alto)
Phil Turetsky    Engineer
Pete Welding    Liner Notes

Записано в 

  • Los Angeles, CA
CD01Exact Audio Copy V1.0 beta 3 from 29. August 2011EAC extraction logfile from 10. August 2012, 0:24Laurindo Almeida & Bud Shank / Brazilliance Vol.1Used drive: hp CDDVDW TS-L633N Adapter: 1 ID: 0Read mode: SecureUtilize accurate stream: YesDefeat audio cache: YesMake use of C2 pointers: NoRead offset correction: 6Overread into Lead-In and Lead-Out: NoFill up missing offset samples with silence: YesDelete leading and trailing silent blocks: NoNull samples used in CRC calculations: YesUsed interface: Native Win32 interface for Win NT & 2000Gap handling: Appended to previous trackUsed output format: Internal WAV RoutinesSample format: 44.100 Hz; 16 Bit; StereoTOC of the extracted CD Track | Start | Length | Start sector | End sector — 1 | 0:00.00 | 2:49.10 | 0 | 12684 2 | 2:49.10 | 2:57.37 | 12685 | 25996 3 | 5:46.47 | 3:01.50 | 25997 | 39621 4 | 8:48.22 | 3:03.65 | 39622 | 53411 5 | 11:52.12 | 3:12.18 | 53412 | 67829 6 | 15:04.30 | 2:22.00 | 67830 | 78479 7 | 17:26.30 | 2:31.27 | 78480 | 89831 8 | 19:57.57 | 3:04.50 | 89832 | 103681 9 | 23:02.32 | 3:03.53 | 103682 | 117459 10 | 26:06.10 | 3:35.52 | 117460 | 133636 11 | 29:41.62 | 4:47.25 | 133637 | 155186 12 | 34:29.12 | 2:50.05 | 155187 | 167941 13 | 37:19.17 | 3:01.10 | 167942 | 181526 14 | 40:20.27 | 4:39.53 | 181527 | 202504 15 | 45:00.05 | 3:18.07 | 202505 | 217361Track 1 Filename D:\Shared\Laurindo Almeida & Bud Shank\1953 — Brazilliance Vol.1\01. Atabaque.wav Pre-gap length 0:00:02.00 Peak level 94.2 % Extraction speed 1.1 X Track quality 100.0 % Test CRC D8851C15 Copy CRC D8851C15 Accurately ripped (confidence 10) [092407FF] (AR v1) Copy OKTrack 2 Filename D:\Shared\Laurindo Almeida & Bud Shank\1953 — Brazilliance Vol.1\02. Amor Flamengo.wav Peak level 94.8 % Extraction speed 1.2 X Track quality 100.0 % Test CRC 1F8DDB83 Copy CRC 1F8DDB83 Accurately ripped (confidence 10) [C26004DA] (AR v1) Copy OKTrack 3 Filename D:\Shared\Laurindo Almeida & Bud Shank\1953 — Brazilliance Vol.1\03. Stairway to the Stars.wav Peak level 72.3 % Extraction speed 1.3 X Track quality 100.0 % Test CRC 53882817 Copy CRC 53882817 Accurately ripped (confidence 10) [3992D4E6] (AR v1) Copy OKTrack 4 Filename D:\Shared\Laurindo Almeida & Bud Shank\1953 — Brazilliance Vol.1\04. Acertate Mas.wav Peak level 95.6 % Extraction speed 1.4 X Track quality 100.0 % Test CRC 153FB024 Copy CRC 153FB024 Accurately ripped (confidence 10) [DEDE5477] (AR v1) Copy OKTrack 5 Filename D:\Shared\Laurindo Almeida & Bud Shank\1953 — Brazilliance Vol.1\05. Terra Seca.wav Peak level 94.6 % Extraction speed 1.3 X Track quality 99.9 % Test CRC 0DD30AF5 Copy CRC 0DD30AF5 Accurately ripped (confidence 10) [05C88DC9] (AR v1) Copy OKTrack 6 Filename D:\Shared\Laurindo Almeida & Bud Shank\1953 — Brazilliance Vol.1\06. Speak Low.wav Peak level 87.8 % Extraction speed 1.4 X Track quality 100.0 % Test CRC B93E76C8 Copy CRC B93E76C8 Accurately ripped (confidence 10) [AA1EBF29] (AR v1) Copy OKTrack 7 Filename D:\Shared\Laurindo Almeida & Bud Shank\1953 — Brazilliance Vol.1\07. Speak Low (alt. take).wav Peak level 91.6 % Extraction speed 1.2 X Track quality 99.9 % Test CRC D8C0C370 Copy CRC D8C0C370 Accurately ripped (confidence 10) [6F06C59F] (AR v1) Copy OKTrack 8 Filename D:\Shared\Laurindo Almeida & Bud Shank\1953 — Brazilliance Vol.1\08. Inquietacao.wav Peak level 99.3 % Extraction speed 1.6 X Track quality 100.0 % Test CRC 10EE717E Copy CRC 10EE717E Accurately ripped (confidence 10) [337DCA53] (AR v1) Copy OKTrack 9 Filename D:\Shared\Laurindo Almeida & Bud Shank\1953 — Brazilliance Vol.1\09. Baa-Too-Kee.wav Pre-gap length 0:00:00.11 Peak level 99.6 % Extraction speed 1.7 X Track quality 100.0 % Test CRC D27DB080 Copy CRC D27DB080 Accurately ripped (confidence 10) [1D797F38] (AR v1) Copy OKTrack 10 Filename D:\Shared\Laurindo Almeida & Bud Shank\1953 — Brazilliance Vol.1\10. Carinoso.wav Peak level 100.0 % Extraction speed 1.8 X Track quality 100.0 % Test CRC 514980D3 Copy CRC 514980D3 Accurately ripped (confidence 9) [4DDF2B77] (AR v1) Copy OKTrack 11 Filename D:\Shared\Laurindo Almeida & Bud Shank\1953 — Brazilliance Vol.1\11. Tocata.wav Peak level 91.5 % Extraction speed 1.9 X Track quality 100.0 % Test CRC 5DF18C22 Copy CRC 5DF18C22 Accurately ripped (confidence 10) [CBA67C7F] (AR v1) Copy OKTrack 12 Filename D:\Shared\Laurindo Almeida & Bud Shank\1953 — Brazilliance Vol.1\12. Hazardous.wav Peak level 100.0 % Extraction speed 1.8 X Track quality 100.0 % Test CRC 55D84946 Copy CRC 55D84946 Accurately ripped (confidence 9) [6DE85C39] (AR v1) Copy OKTrack 13 Filename D:\Shared\Laurindo Almeida & Bud Shank\1953 — Brazilliance Vol.1\13. Nona.wav Peak level 97.3 % Extraction speed 1.9 X Track quality 100.0 % Test CRC D3009C0D Copy CRC D3009C0D Accurately ripped (confidence 10) [2233EBB5] (AR v1) Copy OKTrack 14 Filename D:\Shared\Laurindo Almeida & Bud Shank\1953 — Brazilliance Vol.1\14. Noctambulism.wav Peak level 100.0 % Extraction speed 2.1 X Track quality 100.0 % Test CRC 85EBECC4 Copy CRC 85EBECC4 Accurately ripped (confidence 10) [7317347F] (AR v1) Copy OKTrack 15 Filename D:\Shared\Laurindo Almeida & Bud Shank\1953 — Brazilliance Vol.1\15. Blue Baiao.wav Peak level 100.0 % Extraction speed 2.1 X Track quality 100.0 % Test CRC F90AF2E8 Copy CRC F90AF2E8 Accurately ripped (confidence 10) [E72677AF] (AR v1) Copy OKAll tracks accurately rippedNo errors occurredEnd of status report---- CUETools DB Plugin V2.1.3[CTDB TOCID: cFbptlXVDWu5_FIxdNMvUxqXbnU-] found, Submit result: cFbptlXVDWu5_FIxdNMvUxqXbnU- has been submitted[45bdfc31] (04/13) No match[84b43b67] (09/13) No match==== Log checksum 0C90D62B2C9CC3FEE860E04E6A8FA1F2A6543FC0B93B888D883533B6E6894918 ====CD02Exact Audio Copy V1.0 beta 3 from 29. August 2011EAC extraction logfile from 7. August 2012, 23:51Laurindo Almeida & Bud Shank / Brazilliance — Vol. 2Used drive: HL-DT-STDVD+-RW GA31N Adapter: 1 ID: 0Read mode: SecureUtilize accurate stream: YesDefeat audio cache: YesMake use of C2 pointers: NoRead offset correction: 103Overread into Lead-In and Lead-Out: NoFill up missing offset samples with silence: YesDelete leading and trailing silent blocks: NoNull samples used in CRC calculations: YesUsed interface: Native Win32 interface for Win NT & 2000Gap handling: Appended to previous trackUsed output format: User Defined EncoderSelected bitrate: 1024 kBit/sQuality: HighAdd ID3 tag: NoCommand line compressor: C:\Program Files (x86)\FLAC\flac.exeAdditional command line options: -T «COMMENT=EAC V1.0 beta 2, Secure Mode, Test & Copy, AccurateRip, FLAC -8TOC of the extracted CD Track | Start | Length | Start sector | End sector — 1 | 0:00.00 | 2:57.50 | 0 | 13324 2 | 2:57.50 | 3:41.35 | 13325 | 29934 3 | 6:39.10 | 3:32.62 | 29935 | 45896 4 | 10:11.72 | 2:41.38 | 45897 | 58009 5 | 12:53.35 | 2:33.52 | 58010 | 69536 6 | 15:27.12 | 4:06.68 | 69537 | 88054 7 | 19:34.05 | 1:59.60 | 88055 | 97039 8 | 21:33.65 | 3:55.25 | 97040 | 114689 9 | 25:29.15 | 2:49.02 | 114690 | 127366 10 | 28:18.17 | 3:08.15 | 127367 | 141481 11 | 31:26.32 | 2:26.15 | 141482 | 152446 12 | 33:52.47 | 2:40.40 | 152447 | 164486 13 | 36:33.12 | 2:04.68 | 164487 | 173854 14 | 38:38.05 | 3:54.52 | 173855 | 191456 15 | 42:32.57 | 2:54.28 | 191457 | 204534 16 | 45:27.10 | 3:36.17 | 204535 | 220751 17 | 49:03.27 | 3:30.45 | 220752 | 236546 18 | 52:33.72 | 3:29.73 | 236547 | 252294 19 | 56:03.70 | 3:59.30 | 252295 | 270249 20 | 60:03.25 | 3:21.07 | 270250 | 285331Track 1 Filename C:\EAC Rips\01 Simpatico.wav Pre-gap length 0:00:02.00 Peak level 93.3 % Extraction speed 1.1 X Track quality 100.0 % Test CRC 1AF0DA42 Copy CRC 1AF0DA42 Accurately ripped (confidence 4) [EB9C315D] (AR v1) Copy OKTrack 2 Filename C:\EAC Rips\02 Rio Rhapsody.wav Pre-gap length 0:00:02.66 Peak level 99.9 % Extraction speed 1.3 X Track quality 100.0 % Test CRC 718B63B1 Copy CRC 718B63B1 Accurately ripped (confidence 4) [4953E520] (AR v1) Copy OKTrack 3 Filename C:\EAC Rips\03 Nocturno.wav Pre-gap length 0:00:02.57 Peak level 93.8 % Extraction speed 1.2 X Track quality 99.9 % Test CRC 821CCBDC Copy CRC 821CCBDC Accurately ripped (confidence 4) [400BF89B] (AR v1) Copy OKTrack 4 Filename C:\EAC Rips\04 Little Girl Blue.wav Pre-gap length 0:00:01.76 Peak level 67.9 % Extraction speed 1.4 X Track quality 100.0 % Test CRC 373465AB Copy CRC 373465AB Accurately ripped (confidence 4) [87C333EC] (AR v1) Copy OKTrack 5 Filename C:\EAC Rips\05 Choro In ''A''.wav Pre-gap length 0:00:01.93 Peak level 99.9 % Extraction speed 1.2 X Track quality 99.9 % Test CRC A7112A0C Copy CRC A7112A0C Accurately ripped (confidence 4) [B524FD41] (AR v1) Copy OKTrack 6 Filename C:\EAC Rips\06 Mood Antigua.wav Pre-gap length 0:00:01.56 Peak level 100.0 % Extraction speed 1.7 X Track quality 100.0 % Test CRC E70AC313 Copy CRC E70AC313 Accurately ripped (confidence 4) [255A7C2D] (AR v1) Copy OKTrack 7 Filename C:\EAC Rips\07 The Color Of Her Hair.wav Pre-gap length 0:00:02.13 Peak level 96.4 % Extraction speed 1.5 X Track quality 100.0 % Test CRC D168F7C0 Copy CRC D168F7C0 Accurately ripped (confidence 4) [671EEFEB] (AR v1) Copy OKTrack 8 Filename C:\EAC Rips\08 Lonely.wav Pre-gap length 0:00:02.04 Peak level 94.8 % Extraction speed 1.8 X Track quality 100.0 % Test CRC 2BCF847B Copy CRC 2BCF847B Accurately ripped (confidence 4) [309A0717] (AR v1) Copy OKTrack 9 Filename C:\EAC Rips\09 I Didn't Know What Time It Was.wav Pre-gap length 0:00:01.90 Peak level 99.1 % Extraction speed 1.8 X Track quality 100.0 % Test CRC FF293B0E Copy CRC FF293B0E Accurately ripped (confidence 4) [43AA9C99] (AR v1) Copy OKTrack 10 Filename C:\EAC Rips\10 Carioca Hills.wav Pre-gap length 0:00:01.93 Peak level 88.0 % Extraction speed 1.6 X Track quality 99.9 % Test CRC C34F7594 Copy CRC C34F7594 Accurately ripped (confidence 4) [8C13009C] (AR v1) Copy OKTrack 11 Filename C:\EAC Rips\11 Harlem Samba.wav Pre-gap length 0:00:03.13 Peak level 85.0 % Extraction speed 1.9 X Track quality 100.0 % Test CRC 270FDFC7 Copy CRC 270FDFC7 Accurately ripped (confidence 4) [E7FE7CCB] (AR v1) Copy OKTrack 12 Filename C:\EAC Rips\12 North Of The Border.wav Pre-gap length 0:00:02.33 Peak level 100.0 % Extraction speed 1.9 X Track quality 100.0 % Test CRC 3FA9799F Copy CRC 3FA9799F Accurately ripped (confidence 4) [368042A7] (AR v1) Copy OKTrack 13 Filename C:\EAC Rips\13 Sunset Baion.wav Pre-gap length 0:00:01.82 Peak level 81.6 % Extraction speed 1.9 X Track quality 100.0 % Test CRC FE9EFC0E Copy CRC FE9EFC0E Accurately ripped (confidence 4) [E4925AE9] (AR v1) Copy OKTrack 14 Filename C:\EAC Rips\14 'Round Midnight.wav Pre-gap length 0:00:02.37 Peak level 89.5 % Extraction speed 1.9 X Track quality 99.9 % Test CRC BDAAC1FF Copy CRC BDAAC1FF Accurately ripped (confidence 4) [68F59850] (AR v1) Copy OKTrack 15 Filename C:\EAC Rips\15 Toro Dance.wav Pre-gap length 0:00:00.76 Peak level 94.8 % Extraction speed 2.1 X Track quality 100.0 % Test CRC 4A95B7D0 Copy CRC 4A95B7D0 Accurately ripped (confidence 4) [494A8328] (AR v1) Copy OKTrack 16 Filename C:\EAC Rips\16 Serenade For Alto.wav Peak level 74.4 % Extraction speed 2.3 X Track quality 100.0 % Test CRC CA031617 Copy CRC CA031617 Accurately ripped (confidence 4) [CC0DDC5B] (AR v1) Copy OKTrack 17 Filename C:\EAC Rips\17 Xana-Lyn.wav Peak level 61.8 % Extraction speed 2.3 X Track quality 100.0 % Test CRC 85B0EBE2 Copy CRC 85B0EBE2 Accurately ripped (confidence 4) [27D5D768] (AR v1) Copy OKTrack 18 Filename C:\EAC Rips\18 Blowing Wild.wav Peak level 91.2 % Extraction speed 2.4 X Track quality 100.0 % Test CRC BD4743CE Copy CRC BD4743CE Accurately ripped (confidence 4) [D9B30434] (AR v1) Copy OKTrack 19 Filename C:\EAC Rips\19 Gershwin Prelude.wav Peak level 70.5 % Extraction speed 2.2 X Track quality 99.9 % Test CRC 35233A65 Copy CRC 35233A65 Accurately ripped (confidence 4) [1139AB78] (AR v1) Copy OKTrack 20 Filename C:\EAC Rips\20 Waltz Frio Y Calor.wav Peak level 89.5 % Extraction speed 2.5 X Track quality 100.0 % Test CRC F6FF9B1F Copy CRC F6FF9B1F Accurately ripped (confidence 4) [5DBA8EDB] (AR v1) Copy OKAll tracks accurately rippedNo errors occurredEnd of status report---- CUETools DB Plugin V2.1.3[CTDB TOCID: dgZd2r0XAmPc1_gqIhtX5ozY8Zk-] found, Submit result: dgZd2r0XAmPc1_gqIhtX5ozY8Zk- has been confirmed[09b9b4ce] (2/2) Accurately ripped==== Log checksum 9C00EFC2A2A8436902F94C7C5343E4D6ACE2BFC176A20D4B6756FDB7DA4280F5 ====
CD01
REM GENRE "Jazz"
REM DATE 1953
REM DISCID BD0B520F
REM COMMENT "ExactAudioCopy v1.0b3"
PERFORMER "Laurindo Almeida & Bud Shank"
TITLE "Brazilliance Vol.1"
FILE "01. Atabaque.flac" WAVE TRACK 01 AUDIO TITLE "Atabaque" PERFORMER "Laurindo Almeida & Bud Shank" INDEX 01 00:00:00
FILE "02. Amor Flamengo.flac" WAVE TRACK 02 AUDIO TITLE "Amor Flamengo" PERFORMER "Laurindo Almeida & Bud Shank" INDEX 01 00:00:00
FILE "03. Stairway to the Stars.flac" WAVE TRACK 03 AUDIO TITLE "Stairway to the Stars" PERFORMER "Laurindo Almeida & Bud Shank" INDEX 01 00:00:00
FILE "04. Acertate Mas.flac" WAVE TRACK 04 AUDIO TITLE "Acertate Mas" PERFORMER "Laurindo Almeida & Bud Shank" INDEX 01 00:00:00
FILE "05. Terra Seca.flac" WAVE TRACK 05 AUDIO TITLE "Terra Seca" PERFORMER "Laurindo Almeida & Bud Shank" INDEX 01 00:00:00
FILE "06. Speak Low.flac" WAVE TRACK 06 AUDIO TITLE "Speak Low" PERFORMER "Laurindo Almeida & Bud Shank" INDEX 01 00:00:00
FILE "07. Speak Low (alt. take).flac" WAVE TRACK 07 AUDIO TITLE "Speak Low (alt. take)" PERFORMER "Laurindo Almeida & Bud Shank" INDEX 01 00:00:00
FILE "08. Inquietacao.flac" WAVE TRACK 08 AUDIO TITLE "Inquietacao" PERFORMER "Laurindo Almeida & Bud Shank" INDEX 01 00:00:00 TRACK 09 AUDIO TITLE "Baa-Too-Kee" PERFORMER "Laurindo Almeida & Bud Shank" INDEX 00 03:04:39
FILE "09. Baa-Too-Kee.flac" WAVE INDEX 01 00:00:00
FILE "10. Carinoso.flac" WAVE TRACK 10 AUDIO TITLE "Carinoso" PERFORMER "Laurindo Almeida & Bud Shank" INDEX 01 00:00:00
FILE "11. Tocata.flac" WAVE TRACK 11 AUDIO TITLE "Tocata" PERFORMER "Laurindo Almeida & Bud Shank" INDEX 01 00:00:00
FILE "12. Hazardous.flac" WAVE TRACK 12 AUDIO TITLE "Hazardous" PERFORMER "Laurindo Almeida & Bud Shank" INDEX 01 00:00:00
FILE "13. Nona.flac" WAVE TRACK 13 AUDIO TITLE "Nona" PERFORMER "Laurindo Almeida & Bud Shank" INDEX 01 00:00:00
FILE "14. Noctambulism.flac" WAVE TRACK 14 AUDIO TITLE "Noctambulism" PERFORMER "Laurindo Almeida & Bud Shank" INDEX 01 00:00:00
FILE "15. Blue Baiao.flac" WAVE TRACK 15 AUDIO TITLE "Blue Baiao" PERFORMER "Laurindo Almeida & Bud Shank" INDEX 01 00:00:00
CD02
REM GENRE "Jazz - Brazilian"
REM DATE 1991
REM DISCID 1B0EDC14
REM COMMENT "ExactAudioCopy v1.0b3"
PERFORMER "Laurindo Almeida & Bud Shank"
TITLE "Brazilliance - Vol. 2"
FILE "01 Simpatico.wav" WAVE TRACK 01 AUDIO TITLE "Simpatico" PERFORMER "Laurindo Almeida & Bud Shank" ISRC 000000000000 INDEX 01 00:00:00 TRACK 02 AUDIO TITLE "Rio Rhapsody" PERFORMER "Laurindo Almeida & Bud Shank" ISRC 000000000000 INDEX 00 02:55:00
FILE "02 Rio Rhapsody.wav" WAVE INDEX 01 00:00:00 TRACK 03 AUDIO TITLE "Nocturno" PERFORMER "Laurindo Almeida & Bud Shank" ISRC 000000000000 INDEX 00 03:38:67
FILE "03 Nocturno.wav" WAVE INDEX 01 00:00:00 TRACK 04 AUDIO TITLE "Little Girl Blue" PERFORMER "Laurindo Almeida & Bud Shank" ISRC 000000000000 INDEX 00 03:31:05
FILE "04 Little Girl Blue.wav" WAVE INDEX 01 00:00:00 TRACK 05 AUDIO TITLE "Choro In 'A'" PERFORMER "Laurindo Almeida & Bud Shank" ISRC 000000000000 INDEX 00 02:39:43
FILE "05 Choro In ''A''.wav" WAVE INDEX 01 00:00:00 TRACK 06 AUDIO TITLE "Mood Antigua" PERFORMER "Laurindo Almeida & Bud Shank" ISRC 000000000000 INDEX 00 02:32:10
FILE "06 Mood Antigua.wav" WAVE INDEX 01 00:00:00 TRACK 07 AUDIO TITLE "The Color Of Her Hair" PERFORMER "Laurindo Almeida & Bud Shank" ISRC 000000000000 INDEX 00 04:04:58
FILE "07 The Color Of Her Hair.wav" WAVE INDEX 01 00:00:00 TRACK 08 AUDIO TITLE "Lonely" PERFORMER "Laurindo Almeida & Bud Shank" ISRC 000000000000 INDEX 00 01:57:57
FILE "08 Lonely.wav" WAVE INDEX 01 00:00:00 TRACK 09 AUDIO TITLE "I Didn't Know What Time It Was" PERFORMER "Laurindo Almeida & Bud Shank" ISRC 000000000000 INDEX 00 03:53:32
FILE "09 I Didn't Know What Time It Was.wav" WAVE INDEX 01 00:00:00 TRACK 10 AUDIO TITLE "Carioca Hills" PERFORMER "Laurindo Almeida & Bud Shank" ISRC 000000000000 INDEX 00 02:47:07
FILE "10 Carioca Hills.wav" WAVE INDEX 01 00:00:00 TRACK 11 AUDIO TITLE "Harlem Samba" PERFORMER "Laurindo Almeida & Bud Shank" ISRC 000000000000 INDEX 00 03:05:05
FILE "11 Harlem Samba.wav" WAVE INDEX 01 00:00:00 TRACK 12 AUDIO TITLE "North Of The Border" PERFORMER "Laurindo Almeida & Bud Shank" ISRC 000000000000 INDEX 00 02:23:65
FILE "12 North Of The Border.wav" WAVE INDEX 01 00:00:00 TRACK 13 AUDIO TITLE "Sunset Baion" PERFORMER "Laurindo Almeida & Bud Shank" ISRC 000000000000 INDEX 00 02:38:53
FILE "13 Sunset Baion.wav" WAVE INDEX 01 00:00:00 TRACK 14 AUDIO TITLE "'Round Midnight" PERFORMER "Laurindo Almeida & Bud Shank" ISRC 000000000000 INDEX 00 02:02:40
FILE "14 'Round Midnight.wav" WAVE INDEX 01 00:00:00 TRACK 15 AUDIO TITLE "Toro Dance" PERFORMER "Laurindo Almeida & Bud Shank" ISRC 000000000000 INDEX 00 03:53:70
FILE "15 Toro Dance.wav" WAVE INDEX 01 00:00:00
FILE "16 Serenade For Alto.wav" WAVE TRACK 16 AUDIO TITLE "Serenade For Alto" PERFORMER "Laurindo Almeida & Bud Shank" ISRC 000000000000 INDEX 01 00:00:00
FILE "17 Xana-Lyn.wav" WAVE TRACK 17 AUDIO TITLE "Xana-Lyn" PERFORMER "Laurindo Almeida & Bud Shank" ISRC 000000000000 INDEX 01 00:00:00
FILE "18 Blowing Wild.wav" WAVE TRACK 18 AUDIO TITLE "Blowing Wild" PERFORMER "Laurindo Almeida & Bud Shank" ISRC 000000000000 INDEX 01 00:00:00
FILE "19 Gershwin Prelude.wav" WAVE TRACK 19 AUDIO TITLE "Gershwin Prelude" PERFORMER "Laurindo Almeida & Bud Shank" ISRC 000000000000 INDEX 01 00:00:00
FILE "20 Waltz Frio Y Calor.wav" WAVE TRACK 20 AUDIO TITLE "Waltz Frio Y Calor" PERFORMER "Laurindo Almeida & Bud Shank" ISRC 000000000000 INDEX 01 00:00:00
23:18
69
RSS
Нет комментариев. Ваш будет первым!