Поиск

1946 (1989) Fats Navarro - Fat Girl {Vogue VG 655 650115}

1946 (1989) Fats Navarro - Fat Girl {Vogue VG 655 650115}
Страна-производитель диска (релиза):
USA
Дата записи диска:
6 сентября, 18 декабря, 20 декабря 1946
Дата издания диска:
1989
Издатель (лейбл):
Номер по каталогу:
VG 655 650115
Носитель:
CD
Битрейт аудио:
lossless
Аудиокодек:
FLAC (*.flac)
Тип рипа:
tracks+.cue
Время звучания:
44:59
Наличие сканов:
  • да
Треклист:

01. Boppin' a Riff (Stitt) 5:50
02. Fat Boy (Navarro) 5:35
03. Everything's Cool (Navarro, Fuller) 5:32
04. Webb City (Powell, Fuller) 5:41
05. Callin' Dr Jazz (Davis) 2:49
06. Fracture (Davis) 2:51
07. Maternity (Davis) 3:01
08. Stealin'Trash (Davis) 2:46
09. Just a Mystery (Davis) 2:13
10. Red Pepper (Davis) 3:02
11. Spinal (Davis) 2:29
12. Hollerin' and Screamin' (Davis) 2:38

Состав:

 

[# 1-4]

Recorded in New York City; September 6, 1946
[# 5-8] Eddie Davis And His Beboppers

  • Fats Navarro  — tp
  • Eddie "Lockjaw" Davis — ts
  • Al Haig  — p
  • Huey Long — g
  • Gene Ramey — b
  • Denzil Best — dr

Recorded in New York City; December 18, 1946
[# 9-12] Eddie Davis And His Beboppers
Same as above
Recorded in New York City; December 20, 1946

Лог создания рипа
Exact Audio Copy V1.0 beta 3 from 29. August 2011
EAC extraction logfile from 30. September 2013, 18:45
Fats Navarro / Fat Girl
Used drive : HL DTST BD RE BE12LU30 Adapter: 3 ID: 0
Read mode : Secure
Utilize accurate stream : Yes
Defeat audio cache : Yes
Make use of C2 pointers : Yes
Read offset correction : 0
Overread into Lead-In and Lead-Out : Yes
Fill up missing offset samples with silence : Yes
Delete leading and trailing silent blocks : No
Null samples used in CRC calculations : Yes
Used interface : Native Win32 interface for Win NT & 2000
Gap handling : Appended to previous track
Used output format : User Defined Encoder
Selected bitrate : 896 kBit/s
Quality : High
Add ID3 tag : Yes
Command line compressor : C:\Program Files (x86)\Exact Audio Copy\Flac\flac.exe
Additional command line options : -V -8 -T "Genre=%genre%" -T "Artist=%artist%" -T "Title=%title%" -T "Album=%albumtitle%" -T "Date=%year%" -T "Tracknumber=%tracknr%" -T "Comment=%comment%" %source%
TOC of the extracted CD Track | Start | Length | Start sector | End sector --------------------------------------------------------- 1 | 0:00.00 | 5:35.20 | 0 | 25144 2 | 5:35.20 | 5:43.23 | 25145 | 50892 3 | 11:18.43 | 5:52.52 | 50893 | 77344 4 | 17:11.20 | 5:37.43 | 77345 | 102662 5 | 22:48.63 | 2:51.00 | 102663 | 115487 6 | 25:39.63 | 2:53.20 | 115488 | 128482 7 | 28:33.08 | 3:03.42 | 128483 | 142249 8 | 31:36.50 | 2:48.63 | 142250 | 154912 9 | 34:25.38 | 2:15.62 | 154913 | 165099 10 | 36:41.25 | 3:05.25 | 165100 | 178999 11 | 39:46.50 | 2:32.13 | 179000 | 190412 12 | 42:18.63 | 2:39.62 | 190413 | 202399
Track 1 Filename G:\Audio Lossless\Fats Navarro 1946 Fat Girl\01. Fats Navarro - Boppin' a Riff.wav Pre-gap length 0:00:02.00 Peak level 91.7 % Extraction speed 43.3 X Track quality 99.9 % Test CRC 4F498A4B Copy CRC 4F498A4B Track not present in AccurateRip database Copy OK
Track 2 Filename G:\Audio Lossless\Fats Navarro 1946 Fat Girl\02. Fats Navarro - Fat Boy.wav Peak level 89.7 % Extraction speed 49.1 X Track quality 100.0 % Test CRC 01BC2F79 Copy CRC 01BC2F79 Track not present in AccurateRip database Copy OK
Track 3 Filename G:\Audio Lossless\Fats Navarro 1946 Fat Girl\03. Fats Navarro - Everything's Cool.wav Peak level 75.8 % Extraction speed 49.5 X Track quality 100.0 % Test CRC E26BAC59 Copy CRC E26BAC59 Track not present in AccurateRip database Copy OK
Track 4 Filename G:\Audio Lossless\Fats Navarro 1946 Fat Girl\04. Fats Navarro - Webb City.wav Peak level 73.4 % Extraction speed 51.8 X Track quality 100.0 % Test CRC 0E9A9016 Copy CRC 0E9A9016 Track not present in AccurateRip database Copy OK
Track 5 Filename G:\Audio Lossless\Fats Navarro 1946 Fat Girl\05. Fats Navarro - Callin' dr Jazz.wav Peak level 57.5 % Extraction speed 46.8 X Track quality 100.0 % Test CRC 55D39A30 Copy CRC 55D39A30 Track not present in AccurateRip database Copy OK
Track 6 Filename G:\Audio Lossless\Fats Navarro 1946 Fat Girl\06. Fats Navarro - Fracture.wav Peak level 60.8 % Extraction speed 42.2 X Track quality 100.0 % Test CRC 65751976 Copy CRC 65751976 Track not present in AccurateRip database Copy OK
Track 7 Filename G:\Audio Lossless\Fats Navarro 1946 Fat Girl\07. Fats Navarro - Maternity.wav Peak level 61.0 % Extraction speed 33.8 X Track quality 99.8 % Test CRC AFC23587 Copy CRC AFC23587 Track not present in AccurateRip database Copy OK
Track 8 Filename G:\Audio Lossless\Fats Navarro 1946 Fat Girl\08. Fats Navarro - Stealin' Trash.wav Peak level 65.1 % Extraction speed 40.7 X Track quality 100.0 % Test CRC A257A2E9 Copy CRC A257A2E9 Track not present in AccurateRip database Copy OK
Track 9 Filename G:\Audio Lossless\Fats Navarro 1946 Fat Girl\09. Fats Navarro - Just a Mystery.wav Peak level 71.9 % Extraction speed 41.6 X Track quality 100.0 % Test CRC 9DF8F2E8 Copy CRC 9DF8F2E8 Track not present in AccurateRip database Copy OK
Track 10 Filename G:\Audio Lossless\Fats Navarro 1946 Fat Girl\10. Fats Navarro - Red Pepper.wav Peak level 74.2 % Extraction speed 43.0 X Track quality 100.0 % Test CRC D6ABDBE6 Copy CRC D6ABDBE6 Track not present in AccurateRip database Copy OK
Track 11 Filename G:\Audio Lossless\Fats Navarro 1946 Fat Girl\11. Fats Navarro - Spinal.wav Peak level 61.8 % Extraction speed 44.2 X Track quality 100.0 % Test CRC 9F50E2F5 Copy CRC 9F50E2F5 Track not present in AccurateRip database Copy OK
Track 12 Filename G:\Audio Lossless\Fats Navarro 1946 Fat Girl\12. Fats Navarro - Hollerin' and Screamin'.wav Peak level 66.0 % Extraction speed 59.3 X Track quality 100.0 % Test CRC A58867D8 Copy CRC A58867D8 Track not present in AccurateRip database Copy OK
None of the tracks are present in the AccurateRip database
No errors occurred
End of status report
---- CUETools DB Plugin V2.1.3
[CTDB TOCID: mehXF.Ce0LQ.AB7476ix4XmZo.A-] disk not present in database, Submit result: unrecognized or virtual drive
==== Log checksum 4D2CDA654E55565B0E1608E4118C2392B7F18B4EEF80C4488B0DE13AD6A9A9D2 ====
Содержание индексной карты (.CUE)
REM GENRE Jazz
REM DATE 1946
REM DISCID 980A8A0C
REM COMMENT "ExactAudioCopy v1.0b3"
PERFORMER "Fats Navarro"
TITLE "Fat Girl"
FILE "01. Fats Navarro - Boppin' a Riff.flac" WAVE TRACK 01 AUDIO TITLE "Boppin' a Riff" PERFORMER "Fats Navarro" INDEX 01 00:00:00
FILE "02. Fats Navarro - Fat Boy.flac" WAVE TRACK 02 AUDIO TITLE "Fat Boy" PERFORMER "Fats Navarro" INDEX 01 00:00:00
FILE "03. Fats Navarro - Everything's Cool.flac" WAVE TRACK 03 AUDIO TITLE "Everything's Cool" PERFORMER "Fats Navarro" INDEX 01 00:00:00
FILE "04. Fats Navarro - Webb City.flac" WAVE TRACK 04 AUDIO TITLE "Webb City" PERFORMER "Fats Navarro" INDEX 01 00:00:00
FILE "05. Fats Navarro - Callin' dr Jazz.flac" WAVE TRACK 05 AUDIO TITLE "Callin' dr Jazz" PERFORMER "Fats Navarro" INDEX 01 00:00:00
FILE "06. Fats Navarro - Fracture.flac" WAVE TRACK 06 AUDIO TITLE "Fracture" PERFORMER "Fats Navarro" INDEX 01 00:00:00
FILE "07. Fats Navarro - Maternity.flac" WAVE TRACK 07 AUDIO TITLE "Maternity" PERFORMER "Fats Navarro" INDEX 01 00:00:00
FILE "08. Fats Navarro - Stealin' Trash.flac" WAVE TRACK 08 AUDIO TITLE "Stealin' Trash" PERFORMER "Fats Navarro" INDEX 01 00:00:00
FILE "09. Fats Navarro - Just a Mystery.flac" WAVE TRACK 09 AUDIO TITLE "Just a Mystery" PERFORMER "Fats Navarro" INDEX 01 00:00:00
FILE "10. Fats Navarro - Red Pepper.flac" WAVE TRACK 10 AUDIO TITLE "Red Pepper" PERFORMER "Fats Navarro" INDEX 01 00:00:00
FILE "11. Fats Navarro - Spinal.flac" WAVE TRACK 11 AUDIO TITLE "Spinal" PERFORMER "Fats Navarro" INDEX 01 00:00:00
FILE "12. Fats Navarro - Hollerin' and Screamin'.flac" WAVE TRACK 12 AUDIO TITLE "Hollerin' and Screamin'" PERFORMER "Fats Navarro" INDEX 01 00:00:00
Приватный:
Нет (DHT включён)
Размер:
214.75 Мб (225,181,434 байт) » файлов: 27
Участники:
0 раздают, 0 качают (0 участников всего)
Внешние участники:
1 раздают, 0 качают (1 участников всего) [ Обновить ]
20:23
79
RSS
Нет комментариев. Ваш будет первым!