Поиск

1936-1940 (1991) Lil Hardin Armstrong - Lil Hardin Armstrong & Her Swing Orchestra: 1936-1940 {Chronological Classics 564}

1936-1940 (1991) Lil Hardin Armstrong - Lil Hardin Armstrong & Her Swing Orchestra: 1936-1940 {Chronological Classics 564}
Страна-производитель диска (релиза):
France
Дата записи диска:
27 октября 1936 - 18 марта 1940
Дата издания диска:
1991
Издатель (лейбл):
Номер по каталогу:
564
Носитель:
CD
Битрейт аудио:
lossless
Аудиокодек:
FLAC (*.flac)
Тип рипа:
tracks+.cue
Время звучания:
73:26
Релизёр (источник):
apach78

Треклист:

01 - Or Leave Me Alone
02 - My Hi-De-Ho-Man
03 - Brown Gal
04 - Doin' The Suzie-Q
05 - Just For A Thrill
06 - It's Murder
07 - Born To Swing
08 - (I'm On A) Sit-Down Strike For Rhythm
09 - Bluer Than Blue
10 - I'm Knockin At The Cabin Door
11 - Lindy Hop
12 - When I Went Back Home
13 - Let's Call It Love
14 - You Mean So Much To Me
15 - Let's Get Happy Together
16 - Happy Today, Sad Tomorrow
17 - You Shall Reap What You Sow
18 - Oriental Swing
19 - Safely Locked Up In My Heart
20 - Everything's Wrong, Ain't Nothing Right
21 - Harlem On Saturday Night
22 - Knock-Kneed Sal (On The Mourner's Bench)
23 - Sixth Street
24 - Riffin' The Blues
25 - Why Is A Good Man So Hard To Find
26 - My Secret Flame

Состав:
  • Arnold Adams    Guitar
  • Lil Hardin Armstrong    Composer, Piano, Vocals
  • Buster Bailey    Clarinet
  • Dave Barbour    Guitar
  • Chu Berry    Sax (Tenor)
  • Wellman Braud    String Bass
  • Robert Carroll    Sax (Tenor)
  • Shirley Clay    Trumpet
  • Teddy Cole    Piano
  • George Foster    Drums
  • John Frazier    String Bass
  • Frank Froeba    Piano
  • J.C. Higginbotham    Trombone
  • Russell Johns    Sax (Tenor)
  • Manzie Johnson    Drums
  • Jonah Jones    Trumpet
  • Reunald Jones    Trumpet
  • John McGee    Trumpet
  • Ralph Muzillo    Trumpet
  • Al Philburn    Trombone
  • Prince Robinson    Sax (Tenor)
  • Anatol Schenker    Liner Notes
  • Jimmy Sherman    Piano
  • O'Neill Spencer    Drums
  • Haig Stephens    String Bass
  • Don Stovall    Sax (Alto)
  • Joe Thomas    Trumpet
  • Sam Weiss    Drums
  • Midge Williams    Vocals
  • Tony Zimmers    Clarinet, Sax (Tenor)
EAC extraction logfile from 21. March 2009, 18:03 for CDLil Hardin Armstrong / 1936-1940Used drive: Optiarc DVD RW AD-7590A Adapter: 3 ID: 0Read mode: Secure with NO C2, accurate stream, disable cacheRead offset correction: 48Overread into Lead-In and Lead-Out: NoUsed output format: C:\Program Files\Exact Audio Copy\Flac\flac.exe (User Defined Encoder)192 kBit/sAdditional command line options: -8 -A tukey(0.25) -A gauss(0.1875) -b 4096 -V -T «artist=%a» -T «title=%t» -T «album=%g» -T «date=%y» -T «tracknumber=%n» -T «genre=%m» %s --sector-alignOther options:Fill up missing offset samples with silence: YesDelete leading and trailing silent blocks: NoNative Win32 interface for Win NT & 2000Track 1Filename D:\flac\Lil Hardin Armstrong — 1936-1940\01 — Or Leave Me Alone.wavPre-gap length 0:00:02.33Peak level 97.9 %Track quality 99.9 %Test CRC FCD3DAF8Copy CRC FCD3DAF8Copy OKTrack 2Filename D:\flac\Lil Hardin Armstrong — 1936-1940\02 — My Hi-De-Ho-Man.wavPre-gap length 0:00:01.42Peak level 97.9 %Track quality 100.0 %Test CRC 2EE68D9FCopy CRC 2EE68D9FCopy OKTrack 3Filename D:\flac\Lil Hardin Armstrong — 1936-1940\03 — Brown Gal.wavPre-gap length 0:00:01.40Peak level 97.9 %Track quality 99.9 %Test CRC EB684D91Copy CRC EB684D91Copy OKTrack 4Filename D:\flac\Lil Hardin Armstrong — 1936-1940\04 — Doin' The Suzie-Q.wavPre-gap length 0:00:01.44Peak level 97.9 %Track quality 100.0 %Test CRC 1171ED03Copy CRC 1171ED03Copy OKTrack 5Filename D:\flac\Lil Hardin Armstrong — 1936-1940\05 — Just For A Thrill.wavPre-gap length 0:00:01.56Peak level 97.9 %Track quality 100.0 %Test CRC 1E84EDBFCopy CRC 1E84EDBFCopy OKTrack 6Filename D:\flac\Lil Hardin Armstrong — 1936-1940\06 — It's Murder.wavPre-gap length 0:00:01.33Peak level 97.9 %Track quality 100.0 %Test CRC 54C3E209Copy CRC 54C3E209Copy OKTrack 7Filename D:\flac\Lil Hardin Armstrong — 1936-1940\07 — Born To Swing.wavPre-gap length 0:00:01.32Peak level 97.9 %Track quality 100.0 %Test CRC 8AC81766Copy CRC 8AC81766Copy OKTrack 8Filename D:\flac\Lil Hardin Armstrong — 1936-1940\08 — (I'm On A) Sit-Down Strike For Rhythm.wavPre-gap length 0:00:01.59Peak level 97.9 %Track quality 100.0 %Test CRC EA64A3B3Copy CRC EA64A3B3Copy OKTrack 9Filename D:\flac\Lil Hardin Armstrong — 1936-1940\09 — Bluer Than Blue.wavPre-gap length 0:00:01.42Peak level 97.9 %Track quality 100.0 %Test CRC E77648E9Copy CRC E77648E9Copy OKTrack 10Filename D:\flac\Lil Hardin Armstrong — 1936-1940\10 — I'm Knockin At The Cabin Door.wavPre-gap length 0:00:01.24Peak level 97.9 %Track quality 100.0 %Test CRC 23E747DDCopy CRC 23E747DDCopy OKTrack 11Filename D:\flac\Lil Hardin Armstrong — 1936-1940\11 — Lindy Hop.wavPre-gap length 0:00:01.39Peak level 91.9 %Track quality 100.0 %Test CRC CB5AAB5ECopy CRC CB5AAB5ECopy OKTrack 12Filename D:\flac\Lil Hardin Armstrong — 1936-1940\12 — When I Went Back Home.wavPre-gap length 0:00:01.45Peak level 97.9 %Track quality 100.0 %Test CRC 7E305321Copy CRC 7E305321Copy OKTrack 13Filename D:\flac\Lil Hardin Armstrong — 1936-1940\13 — Let's Call It Love.wavPre-gap length 0:00:01.55Peak level 97.9 %Track quality 100.0 %Test CRC FD86B728Copy CRC FD86B728Copy OKTrack 14Filename D:\flac\Lil Hardin Armstrong — 1936-1940\14 — You Mean So Much To Me.wavPre-gap length 0:00:02.11Peak level 97.9 %Track quality 100.0 %Test CRC C4252A03Copy CRC C4252A03Copy OKTrack 15Filename D:\flac\Lil Hardin Armstrong — 1936-1940\15 — Let's Get Happy Together.wavPre-gap length 0:00:01.06Peak level 97.9 %Track quality 100.0 %Test CRC 1953D826Copy CRC 1953D826Copy OKTrack 16Filename D:\flac\Lil Hardin Armstrong — 1936-1940\16 — Happy Today, Sad Tomorrow.wavPre-gap length 0:00:01.44Peak level 92.4 %Track quality 100.0 %Test CRC B29B22D5Copy CRC B29B22D5Copy OKTrack 17Filename D:\flac\Lil Hardin Armstrong — 1936-1940\17 — You Shall Reap What You Sow.wavPre-gap length 0:00:01.16Peak level 97.9 %Track quality 100.0 %Test CRC 68DFDDA2Copy CRC 68DFDDA2Copy OKTrack 18Filename D:\flac\Lil Hardin Armstrong — 1936-1940\18 — Oriental Swing.wavPre-gap length 0:00:02.02Peak level 97.9 %Track quality 100.0 %Test CRC 022884FECopy CRC 022884FECopy OKTrack 19Filename D:\flac\Lil Hardin Armstrong — 1936-1940\19 — Safely Locked Up In My Heart.wavPre-gap length 0:00:01.27Peak level 97.9 %Track quality 100.0 %Test CRC 5A0901F5Copy CRC 5A0901F5Copy OKTrack 20Filename D:\flac\Lil Hardin Armstrong — 1936-1940\20 — Everything's Wrong, Ain't Nothing Right.wavPre-gap length 0:00:01.67Peak level 95.9 %Track quality 100.0 %Test CRC 7D676F1CCopy CRC 7D676F1CCopy OKTrack 21Filename D:\flac\Lil Hardin Armstrong — 1936-1940\21 — Harlem On Saturday Night.wavPre-gap length 0:00:01.41Peak level 97.9 %Track quality 100.0 %Test CRC 6F8CCDE1Copy CRC 6F8CCDE1Copy OKTrack 22Filename D:\flac\Lil Hardin Armstrong — 1936-1940\22 — Knock-Kneed Sal (On The Mourner's Bench).wavPre-gap length 0:00:01.22Peak level 97.9 %Track quality 100.0 %Test CRC 340FE970Copy CRC 340FE970Copy OKTrack 23Filename D:\flac\Lil Hardin Armstrong — 1936-1940\23 — Sixth Street.wavPre-gap length 0:00:01.14Peak level 97.9 %Track quality 100.0 %Test CRC 2649155CCopy CRC 2649155CCopy OKTrack 24Filename D:\flac\Lil Hardin Armstrong — 1936-1940\24 — Riffin' The Blues.wavPre-gap length 0:00:02.10Peak level 97.9 %Track quality 100.0 %Test CRC A83D11A4Copy CRC A83D11A4Copy OKTrack 25Filename D:\flac\Lil Hardin Armstrong — 1936-1940\25 — Why Is A Good Man So Hard To Find .wavPre-gap length 0:00:01.74Peak level 91.9 %Track quality 100.0 %Test CRC 8382CFD1Copy CRC 8382CFD1Copy OKTrack 26Filename D:\flac\Lil Hardin Armstrong — 1936-1940\26 — My Secret Flame.wavPre-gap length 0:00:01.55Peak level 95.7 %Track quality 100.0 %Test CRC 5689A2ADCopy CRC 5689A2ADCopy OKNo errors occuredEnd of status report
19:22
73
RSS
Нет комментариев. Ваш будет первым!